Заклятие бесплатно скачать


Заклятие 2013 - скачать бесплатно через торрент в хорошем качестве. Без регистрации

Название: Заклятие / The Conjuring (2013) BDRip 720p | KinoGadget | iPad | Лицензия
Качество видео: BDRip 720p Исходник: Blu-Ray Remux (1080p) Формат: mp4
Перевод: Дублированный [Blu-ray CEE]
Видео: MPEG-4 AVC Аудио кодек: AAC 1280x532 (2.40:1) at 23.976 fps, AVC at 2 598 kbps avg, 0.159 bit/pixel
Аудио: 48.0 KHz, AAC, 2 ch, 128.0 Kbps48.0 KHz, AAC, 2 ch, 128.0 Kbps
Скачать

Загрузка начнется в течение 5 сек.

2.24 GB

Название: Заклятие / The Conjuring (2013) BDRip 720p от HELLYWOOD | Лицензия, A
Перевод: Дубляж [Blu-ray CEE], авторский (одноголосый)
Видео: AVC, 1280x532 (2.40:1), 4803 kbps, 23,976 fps, 0,294 bpp
Аудио: AC3 / 5.1 / 48 kHz / 640 kbps / 16 bit | DUB - Blu-ray CEEAC3 / 5.1 / 48 kHz / 640 kbps / 16 bit | AVO - А.ДольскийAC3 / 5.1 / 48 kHz / 640 kbps / 16 bit | AVO - В.ГорчаковAC3 / 5.1 / 48 kHz / 640 kbps / 16 bit | ENG
Скачать

Загрузка начнется в течение 5 сек.

5.75 GB

Название: Заклятие / The Conjuring (2013) BDRip-AVC от R.G. HD-Films | 60 fps
Качество видео: BDRip-AVC / 60fps
Перевод: Дубляж
Формат видео: MKV
Видео: AVC AVC, 1024x424 (2.40:1), 4567 kbps, 59,940 fps, 0,175 bpp
Аудио: AC3 Русский / AC3 / 5.1 / 48 kHz / 448 kbps / 16 bit
Скачать

Загрузка начнется в течение 5 сек.

3.92 GB

Название: Заклятие / The Conjuring (2013) HDRip-AVC от Кинорадиомагия | Лицензия
Качество видео: HDRip-AVC
Перевод: Дублированный (лицензия)- [BD CEE]
Формат видео: MKV
Видео: MPEG-4 AVC, 1024 х 424, 23.976 fps, ~ 1480 Кбит/с
Аудио: AC3, 6 ch, 448 Кбит/с
Скачать

Загрузка начнется в течение 5 сек.

1.44 GB

Название: Заклятие / The Conjuring (2013) HDRip от Кинорадиомагия | КПК | Лицензия
Качество видео: HDRip | КПК
Перевод: Профессиональный (полное дублирование) - [Лицензия]
Видео: х264 MPEG-4 AVC, 480 х 200, 23.976 fps, 450 Кбит/с
Аудио: ААС LC, 2 ch, 128 Кбит/с
Скачать

Загрузка начнется в течение 5 сек.

464.66 MB

Название: Заклятие / The Conjuring (2013) BDRip 1080p от GORESEWAGE | 3xDub, L1
Качество видео: BDRip 1080p (HDMaNiAcS)
Видео: MPEG-4 AVC Video MPEG-4 AVC Video / 17500 kbps / 1920x798p / 23,976 fps / 2.40:1 / High Profile 4.1
Аудио: DTS / AC3 EnglishDTS / AC3Russian / AC3 / 5.1 / 48 kHz / 640 kbps / 16-bit | Dub BD CEERussian / AC3 / 5.1 / 48 kHz / 448 kbps / 16-bit | Dub (Не кинотеатральный)Russian / DTS / 5.1 / 48 kHz / 1536 kbps / 24-bit | VO Хихикающий докторUkrainian / AC3 / 2.0 / 48 kHz / 192 kbps / 16-bit | Dub Студия PostmodernEnglish / DTS / 5.1 / 48 kHz / 1536 kbps / 24-bit | OriginalEnglish / AC3 / 5.1 / 48 kHz / 640 kbps / 16-bit | Descriрtion
Скачать

Загрузка начнется в течение 5 сек.

17.54 GB

Название: Заклятие / The Conjuring (2013) BDRip 720p от GORESEWAGE | 3xDub, L1
Качество видео: BDRip 720p (HiDt)
Видео: MPEG-4 AVC Video MPEG-4 AVC Video / 7603 kbps / 1280x532p / 23,976 fps / 2.40:1 / High Profile 4.1
Аудио: DTS / AC3 EnglishDTS / AC3Russian / AC3 / 5.1 / 48 kHz / 640 kbps / 16-bit | Dub BD CEERussian / AC3 / 5.1 / 48 kHz / 448 kbps / 16-bit | Dub (Не кинотеатральный)Russian / DTS / 5.1 / 48 kHz / 1536 kbps / 24-bit | VO Хихикающий докторUkrainian / AC3 / 2.0 / 48 kHz / 192 kbps / 16-bit | Dub Студия PostmodernEnglish / DTS / 5.1 / 48 kHz / 1536 kbps / 24-bit | OriginalEnglish / AC3 / 5.1 / 48 kHz / 640 kbps / 16-bit | Descriрtion
Скачать

Загрузка начнется в течение 5 сек.

10.01 GB

Название: Заклятие / The Conjuring (2013) BDRemux 1080p от GORESEWAGE | 3xDub, L1
Качество видео: BDRemux 1080p (The Conjuring 2013 Blu-ray 1080p AVC DTS HD MA5.1-TTG)
Видео: MPEG-4 AVC Video MPEG-4 AVC Video / 24745 kbps / 1920x1080p / 23,976 fps / 16:9 / High Profile 4.1
Аудио: DTS-HD MA / AC3 EnglishDTS-HD MA / AC3Russian / AC3 / 5.1 / 48 kHz / 640 kbps / 16-bit | Dub BD CEERussian / AC3 / 5.1 / 48 kHz / 448 kbps / 16-bit | Dub (Не кинотеатральный)Russian / DTS-HD MA / 5.1 / 48 kHz / 3571 kbps / 24-bit | VO Хихикающий докторUkrainian / AC3 / 2.0 / 48 kHz / 192 kbps / 16-bit | Dub Студия PostmodernEnglish / DTS-HD MA / 5.1 / 48 kHz / 3546 kbps / 24-bit | OriginalEnglish / AC3 / 5.1 / 48 kHz / 640 kbps / 16-bit | Descriрtion
Скачать

Загрузка начнется в течение 5 сек.

26.41 GB

Название: Заклятие / The Conjuring (2013) DVD9 | D
Качество видео: DVD9
Перевод: полное дублирование
Видео: MPEG2 PAL 16:9 (720x576) VBR 6178 Kbps, 25.000 fps
Аудио: Dolby AC3, 6 ch, 48.0 KHz, 384 Kbps русский, английскийDolby AC3, 2 ch, 48.0 KHz, 192 Kbps турецкий
Скачать

Загрузка начнется в течение 5 сек.

5.58 GB

Название: Заклятие / The Conjuring (2013) BDRip 1080p от Killbrain and Scarabey | Лицензия
Перевод: русский профессиональный (полное дублирование) [Лицензия, BD EUR]
Видео: x264 AVC / [email protected] / 2 pass / 23,976 fps / 1920x798p (2,40:1) / 7,7 Mbps / 0.210
Аудио: AC3 английскаяAC3AC3 / 5.1 ch / 640 kbps / Русский дубляж, BD EURAC3 / 5.1 ch / 640 kbps / Английский original, BD EUR
Скачать

Загрузка начнется в течение 5 сек.

7.02 GB

Название: Заклятие / The Conjuring (2013) BDRip 1080p от New-Team
Качество видео: BDRip 1080p
Перевод: Профессиональный (полное дублирование) + Оригинальный
Видео: AVC, 1920x798 (2.40:1), 13500 kbps, 23,976 fps, 0,367 bpp
Аудио: русский / AC3 / 5.1 / 48 kHz / 640 kbps / 16 bit ||английский / AC3 / 5.1 / 48 kHz / 640 kbps / 16 bit
Скачать

Загрузка начнется в течение 5 сек.

11.53 GB

Название: Заклятие / The Conjuring (2013) BDRip 720p
Качество видео: BDRip (источник: Blu-ray Disc)
Перевод: Дублированный (лицензия) + Оригинал
Видео: x264 1280x532 (2,40:1), 23.976 fps, 4309 kbps
Аудио: AC-3, 6 ch, 640 kbps (Rus)AC-3, 6 ch, 640 kbps (Eng)
Скачать

Загрузка начнется в течение 5 сек.

4.37 GB

Название: Заклятие / The Conjuring (2013) HDRip от New-team | Лицензия
Качество видео: HDRip [BDRip 1080p]
Перевод: Дубляж - Лицензия
Формат видео: AVI
Видео: XviD 720x304 (2.37:1), 23.976 fps, XviD build 73 ~1477 kbps avg, 0.28 bit/pixel
Аудио: AC3 48 kHz, AC3 Dolby Digital, 3/2 (L,C,R,l,r) + LFE ch, ~384 kbps
Скачать

Загрузка начнется в течение 5 сек.

1.46 GB

Название: Заклятие / The Conjuring (2013) HDRip от New-team | Лицензия
Качество видео: HDRip [BDRip 1080p]
Перевод: Дубляж - Лицензия
Формат видео: AVI
Видео: XviD 656x272 (2.41:1), 23.976 fps, XviD build 73 ~794 kbps avg, 0.19 bit/pixel
Аудио: MP3 48 kHz, MPEG Layer 3, 2 ch, ~128.00 kbps avg
Скачать

Загрузка начнется в течение 5 сек.

746.39 MB

Название: Заклятие / The Conjuring (2013) BDRip от HQCLUB | Лицензия
Качество видео: BDRip (источник: HDCLUB / Blu-Ray CEE / 1080р)
Перевод: Профессиональный (полное дублирование) CEE + Оригинал (английский)
Формат видео: AVI
Видео: 720x304 (2.37:1), 23.976 fps, XviD build 65 ~1889 kbps avg, 0.36 bit/pixel
Аудио: 48 kHz, AC3 Dolby Digital, 3/2 (L,C,R,l,r) + LFE ch, ~448 kbps avg (RUS)48 kHz, AC3 Dolby Digital, 3/2 (L,C,R,l,r) + LFE ch, ~448 kbps avg (ENG)
Скачать

Загрузка начнется в течение 5 сек.

2.18 GB

Название: Заклятие / The Conjuring (2013) BDRip от Youtracker
Качество видео: BDRip | sample
Перевод: Профессиональный (полное дублирование)
Видео: XviD, 720x304 (2.35:1), 2322 kbps, 23,976 fps, 0,443 bpp
Аудио: AC3 / 5.1 / 48 kHz / 448 kbps / 16 bit
Скачать

Загрузка начнется в течение 5 сек.

2.18 GB

Название: Заклятие / The Conjuring (2013) BDRip 1080p
Качество видео: BDRip 1080p
Перевод: Дублированный + Оригинал
Видео: x264 1920x800, 8645 Kbps, 23.976 fps
Аудио: AC-3, 6 ch, 640 kbps (Rus)AC-3, 6 ch, 640 kbps (Eng)
Скачать

Загрузка начнется в течение 5 сек.

7.76 GB

Название: Заклятие / The Conjuring (2013) BDRip-AVC от ExKinoRay | D
Качество видео: BDRip-AVC (Blu-Ray Remux (1080р))
Перевод: Дублированный
Формат видео: MKV
Видео: H.264 MPEG-4 AVC, 2617 Кбит/с, 1024х424
Аудио: Русский, английский (АС3, 6 ch, 448 Кбит/с)
Скачать

Загрузка начнется в течение 5 сек.

2.75 GB

Название: Заклятие / The Conjuring (2013) BDRip-AVC от ed_rez | Лицензия
Качество видео: BDRip [Рип с The Conjuring 2013 BluRay REMUX 1080p AVC DTS-HD MA5.1-playBD]
Перевод: Профессиональный (Дублированный) [Лицензия BluRay CEE]
Видео: х264, 1126х468 (2.35:1), 23.976 fps, 2365 Кbps, 0.187 bit/pixel
Аудио: английскаяAAC-LC, 6 ch, VBR, 48 KHz, 224 Kbps [rus]AAC-LC, 6 ch, VBR, 48 KHz, 200 Kbps [eng]
Скачать

Загрузка начнется в течение 5 сек.

2.18 GB

Название: Заклятие / The Conjuring (2013) HDRip-AVC | D | Лицензия
Качество видео: HDRip-AVC
Перевод: Дубляж
Видео: x264 784x328 (2.40:1), 23.976 fps, 858 kbps, 0.139 bit/pixel
Аудио: 48 / 24 KHz, AAC-HE, 2/0 (L,R) ch, ~72.00 kbps
Скачать

Загрузка начнется в течение 5 сек.

745.69 MB

Название: Заклятие / The Conjuring (2013) BDRip от ed_rez | Лицензия
Качество видео: BDRip [Рип с The Conjuring 2013 BluRay REMUX 1080p AVC DTS-HD MA5.1-playBD]
Перевод: Профессиональный (Дублированный) [Лицензия BluRay CEE]
Видео: 720x304 (2.37:1), 23.976 fps, XviD build 73 ~1470 kbps avg, 0.28 bit/pixel
Аудио: 48 kHz, AC3 Dolby Digital, 3/2 (L,C,R,l,r) + LFE ch, ~384 kbps
Скачать

Загрузка начнется в течение 5 сек.

1.46 GB

Название: Заклятие / The Conjuring (2013) BDRip от HQ-ViDEO | Лицензия
Качество видео: BDRip /исходник: The Conjuring 2013 1080p Blu-ray AVC DTS-HD MA 5.1-TTG/
Перевод: Профессиональный дублированный /Лицензия/
Видео: XviD, 720x304 (2.37:1), ~1880 kbps avg, 23,976 fps
Аудио: AC3 Dolby Digital, 48 KHz, ~448 kbps, 3/2 (L,C,R,l,r) + LFE ch /RUS/AC3 Dolby Digital, 48 KHz, ~448 kbps, 3/2 (L,C,R,l,r) + LFE ch /ENG/
Скачать

Загрузка начнется в течение 5 сек.

2.18 GB

Название: Заклятие / The Conjuring (2013) BDRemux 1080p | Лицензия, L1
Качество видео: Blu-Ray Remux (1080p)
Перевод: Дублированный (лицензия), любительский (одноголосый закадровый)
Видео: MPEG-4 AVC, 24.7 Мбит/с, 1920x1080, 23.976 кадр/с
Аудио: Русский (AC3, 6 ch, 640 Кбит/с), (DTS-HD MA, 6 ch, 3571 Кбит/с), английский (DTS-HD MA, 6 ch, 3546 Кбит/с)
Скачать

Загрузка начнется в течение 5 сек.

25.41 GB

Название: Заклятие / The Conjuring (2013) BDRip 720p | D | Лицензия
Качество видео: BDRip (720p)
Перевод: Дублированный [лицензия]
Видео: MPEG-4 AVC, 4060 Кбит/с, 1280x532
Аудио: Русский (AC3, 6 ch, 640 Кбит/с), английский (DTS, 6 ch, 1510 Кбит/с)
Скачать

Загрузка начнется в течение 5 сек.

4.86 GB

Название: Заклятие / The Conjuring (2013) BDRip 720p от leonardo 59 & Scarabey | Лицензия
Качество видео: BDRip 720p Исходник: Blu-ray
Перевод: Профессиональный (полное дублирование) Лицензия
Формат видео: MKV Видео кодек: MPEG-4 AVC Аудио кодек: AC3
Видео: AVC, 1280x532 (2.40:1) at 23.976 fps, AVC at 3036 kbps avg, 0.186 bit/pixel
Аудио: 48 kHz, AC3 Dolby Digital, 3/2 (L,C,R,l,r) + LFE ch, 640.00 kbps - Russian
Скачать

Загрузка начнется в течение 5 сек.

2.93 GB

Название: Заклятие / The Conjuring (2013) Blu-Ray 1080p | D | Лицензия
Качество видео: Blu-Ray (1080p)
Перевод: Дублированный [лицензия]
Видео: MPEG-4 AVC, 24.7 Мбит/с, 1920x1080, 23.976 кадр/с
Аудио: Русский, английский, чешский, итальянский, польский, испанский, тайский (AC3, 6 ch, 640 Кбит/с), английский (DTS-HD MA, 6 ch, 3546 Кбит/с), турецкий (AC3, 2 ch, 192 Кбит/с)
Скачать

Загрузка начнется в течение 5 сек.

32.40 GB

Название: Заклятие / The Conjuring (2013) BDRip 720p от HQ-ViDEO | Лицензия
Качество видео: BDRip 720p /исходник: The Conjuring 2013 1080p Blu-ray AVC DTS-HD MA 5.1-TTG/
Перевод: Профессиональный дублированный /Лицензия/
Видео: x.264, 1280x534 (2.40:1), ~5337 kbps avg, 23,976 fps
Аудио: AC3 Dolby Digital, 48 KHz, ~640 kbps, 3/2 (L,C,R,l,r) + LFE ch /RUS/AC3 Dolby Digital, 48 KHz, ~640 kbps, 3/2 (L,C,R,l,r) + LFE ch /ENG/
Скачать

Загрузка начнется в течение 5 сек.

5.18 GB

Название: Заклятие / The Conjuring (2013) HDRip | Лицензия
Качество видео: HDRip
Перевод: Дублированный [Лицензия]
Формат видео: AVI (XviD)
Видео: XviD, 1716 Кбит/с, 720x304
Аудио: Русский, английский (AC3, 6 ch, 448 Кбит/с)
Скачать

Загрузка начнется в течение 5 сек.

2.06 GB

Название: Заклятие / The Conjuring (2013) BDRip-AVC от HELLYWOOD | D | Лицензия
Перевод: Профессиональный (полное дублирование) лицензия
Формат видео: MKV
Видео: x.264, 1044x434 (2,40:1), 23,976 fps, 1345 Кbps, 0.124 bit/pixel
Аудио: 48 kHz, AC3 Dolby Digital, 3/2 (L,C,R,l,r) + LFE ch, 448.00 kbps | RUS48 kHz, AC3 Dolby Digital, 3/2 (L,C,R,l,r) + LFE ch, 448.00 kbps | ENG
Скачать

Загрузка начнется в течение 5 сек.

1.90 GB

Название: Заклятие / The Conjuring (2013) BDRip-AVC от leonardo 59 & Scarabey | Лицензия
Качество видео: BDRip-AVC Исходник: Blu-ray
Перевод: Профессиональный (полное дублирование) Лицензия
Формат видео: MKV Видео кодек: MPEG-4 AVC Аудио кодек: AC3
Видео: AVC, 960x400 (2.40:1) at 23.976 fps, AVC at 1600 kbps avg, 0.174 bit/pixel
Аудио: 48 kHz, AC3 Dolby Digital, 3/2 (L,C,R,l,r) + LFE ch, 448.00 kbps - Russian
Скачать

Загрузка начнется в течение 5 сек.

1.63 GB

Название: Заклятие / The Conjuring (2013) BDRip 1080p | D | Лицензия
Качество видео: BDRip (1080p)
Перевод: Дублированный [лицензия]
Видео: MPEG-4 AVC, 8618 Кбит/с, 1920x798
Аудио: Русский (AC3, 6 ch, 640 Кбит/с), английский (DTS, 6 ch, 1510 Кбит/с)
Скачать

Загрузка начнется в течение 5 сек.

8.42 GB

Название: Заклятие / The Conjuring (2013) BDRip 720p | D
Качество видео: BDRip 720p [Blu-Ray Remux]
Перевод: Дублированный [Не кинотеатральный]
Формат видео: MKV
Видео: AVC, 1280x532 (2.40:1) at 23.976 fps, AVC at 4690 kbps avg, 0.287 bit/pixel
Аудио: Русский AC3 / 6ch / 448 kbps | ДубляжАнглийский AC3 / 6ch / 448 kbps | Original
Скачать

Загрузка начнется в течение 5 сек.

4.37 GB

Название: Заклятие / The Conjuring (2013) HDRip | D
Качество видео: HDRip
Перевод: Дублированный [Не кинотеатральный]
Видео: AVI (XviD) 640x272, 725 Кбит/с
Аудио: MP3, 2ch, 128 Кбит/с
Скачать

Загрузка начнется в течение 5 сек.

692.06 MB

Название: Заклятие / The Conjuring (2013) HDRip-AVC | D
Качество видео: HDRip-AVC
Перевод: Дубляж (не кино-театральный)
Формат видео: MKV
Видео: x.264, 784x328 (2,40:1), 23,976 fps, 858 Kbps, 0.139 bit/pixel
Аудио: 48 kHz, AAC, 2 (L,R) ch, 72.0 kbps
Скачать

Загрузка начнется в течение 5 сек.

745.74 MB

Название: Заклятие / The Conjuring (2013) BDRip-AVC от leonardo 59 & Scarabey | D
Качество видео: BDRip-AVC Исходник: Blu-ray
Перевод: Дублированный (не кинотеатральный)
Формат видео: MKV Видео кодек: MPEG-4 AVC Аудио кодек: AC3
Видео: AVC, 960x400 (2.40:1) at 23.976 fps, AVC at 1600 kbps avg, 0.174 bit/pixel
Аудио: 48 kHz, AC3 Dolby Digital, 3/2 (L,C,R,l,r) + LFE ch, 448.00 kbps - Russian
Скачать

Загрузка начнется в течение 5 сек.

1.65 GB

Название: Заклятие / The Conjuring (2013) HDRip от Scarabey | L1
Качество видео: HDRip
Перевод: Любительский (Одноголосый, закадровый) Хихикающий доктор
Формат видео: AVI
Видео: 688x288 (2.39:1), 23.976 fps, XviD build 73 ~793 kbps avg, 0.17 bit/pixel
Аудио: 48 kHz, MPEG Layer 3, 2 ch, ~128.00 kbps avg
Скачать

Загрузка начнется в течение 5 сек.

745.61 MB

Название: Заклятие / The Conjuring (2013) BDRip от ed_rez | D
Качество видео: BDRip [Рип с The Conjuring 2013 BluRay REMUX 1080p AVC DTS-HD MA5.1-playBD]
Перевод: Профессиональный (Дублированный) [не кинотеатральный]
Видео: 720x304 (2.37:1), 23.976 fps, XviD build 73 ~1470 kbps avg, 0.28 bit/pixel
Аудио: 48 kHz, AC3 Dolby Digital, 3/2 (L,C,R,l,r) + LFE ch, ~384 kbps
Скачать

Загрузка начнется в течение 5 сек.

1.46 GB

Название: Заклятие / The Conjuring (2013) HDRip от Scarabey | L1
Качество видео: HDRip
Перевод: Любительский (Одноголосый, закадровый) Хихикающий доктор
Формат видео: AVI
Видео: 720x304 (2.37:1), 23.976 fps, XviD build 73 ~1458 kbps avg, 0.28 bit/pixel
Аудио: 48 kHz, AC3 Dolby Digital, 3/2 (L,C,R,l,r) + LFE ch, ~384 kbps
Скачать

Загрузка начнется в течение 5 сек.

1.45 GB

Название: Заклятие / The Conjuring (2013) HDRip | L
Качество видео: HDRip [Рип с BDRip 720p]
Перевод: Дублированное [Не кинотеатральный]
Формат видео: AVI (XviD)
Видео: 1291 Кбит/с, 720x304
Аудио: AC3, 448 Кбит/с (6 ch)
Скачать

Загрузка начнется в течение 5 сек.

1.37 GB

Название: Заклятие / The Conjuring (2013) BDRip 720p от leonardo 59 & Scarabey | D
Качество видео: BDRip 720p Исходник: Blu-ray
Перевод: Дублированный (не кинотеатральный)
Формат видео: MKV Видео кодек: MPEG-4 AVC Аудио кодек: AC3
Видео: AVC, 1280x532 (2.40:1) at 23.976 fps, AVC at 3036 kbps avg, 0.186 bit/pixel
Аудио: 48 kHz, AC3 Dolby Digital, 3/2 (L,C,R,l,r) + LFE ch, 448.00 kbps - Russian
Скачать

Загрузка начнется в течение 5 сек.

2.80 GB

Название: Заклятие / The Conjuring (2013) BDRemux 1080p | D, L1
Качество видео: Blu-Ray Remux (1080p)
Перевод: Дублированный (любительский), любительский (одноголосый закадровый)
Видео: MPEG-4 AVC, 24.7 Мбит/с, 1920x1080, 23.976 кадр/с
Аудио: Русский (AC3, 6 ch, 448 Кбит/с), (DTS-HD MA, 6 ch, 3571 Кбит/с), английский (DTS-HD MA, 6 ch, 3546 Кбит/с)
Скачать

Загрузка начнется в течение 5 сек.

25.26 GB

Название: Заклятие / The Conjuring (2013) BDRip от ed_rez | L1
Качество видео: BDRip [Рип с The Conjuring 2013 BluRay REMUX 1080p AVC DTS-HD MA5.1-playBD]
Перевод: Одноголосый закадровый Хихикающий доктор
Видео: 688x288 (2.39:1), 23.976 fps, XviD build 73 ~1471 kbps avg, 0.31 bit/pixel
Аудио: 48 kHz, AC3 Dolby Digital, 3/2 (L,C,R,l,r) + LFE ch, ~384 kbps
Скачать

Загрузка начнется в течение 5 сек.

1.46 GB

Название: Заклятие / The Conjuring (2013) BDRip 720p от leonardo 59 & Scarabey | L1
Качество видео: BDRip 720p Исходник: Blu-ray
Перевод: Любительский (Одноголосый, закадровый) Хихикающий доктор
Формат видео: MKV Видео кодек: MPEG-4 AVC Аудио кодек: AC3
Видео: AVC, 1280x532 (2.40:1) at 23.976 fps, AVC at 3036 kbps avg, 0.186 bit/pixel
Аудио: 48 kHz, AC3 Dolby Digital, 3/2 (L,C,R,l,r) + LFE ch, 448.00 kbps - Russian
Скачать

Загрузка начнется в течение 5 сек.

2.78 GB

Название: Заклятие / The Conjuring (2013) BDRip-AVC от leonardo 59 & Scarabey | L1
Качество видео: BDRip-AVC Исходник: Blu-ray
Перевод: Любительский (Одноголосый, закадровый) Хихикающий доктор
Формат видео: MKV Видео кодек: MPEG-4 AVC Аудио кодек: AC3
Видео: AVC, 960x400 (2.40:1) at 23.976 fps, AVC at 1600 kbps avg, 0.174 bit/pixel
Аудио: 48 kHz, AC3 Dolby Digital, 3/2 (L,C,R,l,r) + LFE ch, 448.00 kbps - Russian
Скачать

Загрузка начнется в течение 5 сек.

1.63 GB

Название: Заклятие / The Conjuring (2013) BDRip 720p от MULTIBITS | Звук с CAMRip | L1
Качество видео: BDRip 720p
Перевод: Дублированное [Звук с CAMRip] / Любительское (одноголосое) [Хихикающий доктор]
Формат видео: MKV (x264)
Видео: 4075 Кбит/с, 1280x536
Аудио: MP3, 192 Кбит/с (2 ch) / AC3, 384 Кбит/с (6 ch)
Скачать

Загрузка начнется в течение 5 сек.

3.64 GB

Название: Заклятие / The Conjuring (2013) BDRip 1080p от MULTIBITS | Звук с CAMRip | L1
Качество видео: BDRip 1080p
Перевод: Дублированное [Звук с CAMRip] / Любительское (одноголосое) [Хихикающий доктор]
Формат видео: MKV (x264)
Видео: 8272 Кбит/с, 1920x800
Аудио: MP3, 192 Кбит/с (2 ch) / AC3, 384 Кбит/с (6 ch)
Скачать

Загрузка начнется в течение 5 сек.

6.92 GB

Название: Заклятие / The Conjuring (2013) BDRip 1080p | Звук с CAMRip | L1
Качество видео: BDRip 1080p
Аудио: Русский: DTS, 5.1, 1536 Кбит/с, 48kHz, 16 bit - Любительский (одноголосый закадровый) | Хихикающий докторАнглийский: DTS, 5.1, 1536 Кбит/с, 48 kHz, 24 bit
Скачать

Загрузка начнется в течение 5 сек.

8.83 GB

Название: Заклятие / The Conjuring (2013) HDRip | Звук с CAMRip
Качество видео: HDRip
Перевод: Дублированное [звук с CAMRip]
Формат видео: AVI (XviD)
Видео: XviD, 720x304, 23.976 fps, 1 548 Kbps
Аудио: MP3, 48.0 KHz, 2 ch, 192 Kbps
Скачать

Загрузка начнется в течение 5 сек.

1.37 GB

Название: Заклятие / The Conjuring (2013) DVDRip от INTERCINEMA | L1
Качество видео: DVDRip
Перевод: Любительский (одноголосый) [Хихикающий доктор]
Формат видео: AVI (XviD)
Видео: 1473 kb/s, 720x304
Аудио: MP3, 128 kb/s (2 ch)
Скачать

Загрузка начнется в течение 5 сек.

1.32 GB

Название: Заклятие / The Conjuring (2013) DVDRip | Звук с CAMRip
Качество видео: DVDRip
Перевод: Дублированное [звук с CAMRip]
Формат видео: AVI (XviD)
Видео: XviD, 720x304 (2.35:1), 23.976 fps, 1 920 Kbps (0.366 bit/pixel)
Аудио: MP3, 48.0 KHz, 2 ch, 192 Kbps, CBR RUS / AC-3, 48.0 KHz, 6 ch, 384 Kbps, CBR ENG
Скачать

Загрузка начнется в течение 5 сек.

2.04 GB

Название: Заклятие / The Conjuring (2013) DVDRip | Звук с CAMRip
Качество видео: DVDRip
Перевод: Дублированное [звук с CAMRip]
Формат видео: AVI (XviD)
Видео: 680 kb/s, 720x304
Аудио: MP3, 128 kb/s (2 ch)
Скачать

Загрузка начнется в течение 5 сек.

694.46 MB

Название: Заклятие / The Conjuring (2013) DVDRip | L1
Качество видео: DVDRip
Перевод: Любительский (одноголосый) [Хихикающий доктор]
Формат видео: AVI (XviD)
Видео: 680 kb/s, 720x304
Аудио: MP3, 128 kb/s (2 ch)
Скачать

Загрузка начнется в течение 5 сек.

694.47 MB

Название: Заклятие / The Conjuring (2013) WEBRip-AVC | L1
Качество видео: WEBRip-AVC
Перевод: Любительский (одноголосый) [Хихикающий доктор]
Видео: MKV 784x318 (2.46:5), 25.000 fps, AVC (H.264), [email protected] ~1550 kbps, 0.114 bit/pixel
Аудио: 44.1 kHz, MPEG Layer 3, 2/0 (L, R) ch, ~256 kbps avg
Скачать

Загрузка начнется в течение 5 сек.

1.35 GB

Название: Заклятие / The Conjuring (2013) WEBRip | звук с CAMRip
Качество видео: WebRip
Перевод: Дублированное [звук с CAMRip]
Видео: 720x304 (2.37:1), 23.976 fps, XviD build 50 ~782 kbps avg, 0.15 bit/pixel
Аудио: 44.100 kHz, MPEG Layer 3, 2 ch, ~128.00 kbps avg
Скачать

Загрузка начнется в течение 5 сек.

706.06 MB

Название: Заклятие / The Conjuring (2013) WEBRip | Звук с CAMRip
Качество видео: WEBRip
Перевод: Дублированное [звук с CAMRip]
Формат видео: AVI (XviD)
Видео: 720x304, 1688 kb/s
Аудио: MP3, 128 kb/s, (2 ch)
Скачать

Загрузка начнется в течение 5 сек.

1.37 GB

Название: Заклятие / The Conjuring (2013) WEBRip-AVC | Звук с CAMRip
Качество видео: WEBRip-AVC
Перевод: Дублированный | Звук с CAMRip
Видео: AVC, 784x318, 25,000 кадров/сек, 1550 Кбит/сек
Аудио: MPEG-1 Audio layer 3, 44,1 КГц, 2 канала, 128 Кбит/сек - RusAAC LC, 44,1 КГц, 2 канала, 128 Кбит/сек - Eng
Скачать

Загрузка начнется в течение 5 сек.

1.35 GB

Название: Заклятие / The Conjuring (2013) CAMRip от makarevich
Качество видео: CAMRip
Перевод: Дубляж, звук с CAMrip
Видео: XviD 789 Kbps, 640х354 (16:9), 29.970 fps
Аудио: MP3, 128 Kbps, 2 channels, 48.0 KHz
Скачать

Загрузка начнется в течение 5 сек.

708.83 MB

Название: Заклятие / The Conjuring (2013) CAMRip
Качество видео: CAMRip
Перевод: Дублированный
Видео: XviD, 1715 Кбит/с, 720x400
Аудио: MP3, 2 ch, 128 Кбит/с
Скачать

Загрузка начнется в течение 5 сек.

1.37 GB

www.kinovit.net

Скачать фильм Заклятие (2013) через торрент

4 февраля 2016 10:51 Заклятие / The Conjuring (2013) BDRip-AVC от R.G. HD-Films | 60 fps .torrent   [Информация о файле (нажмите для просмотра)] Перевод: ДубляжКачество: BDRip-AVC / 60fpsФормат: MKVВидео: AVC, 1024x424 (2.40:1), 4567 kbps,59,940 fps, 0,175 bppАудио: Русский / AC3 / 5.1 / 48 kHz / 448 kbps / 16 bit 3,92 Gb 235 16 4 февраля 2016 10:51 Заклятие / The Conjuring (2013) HDRip-AVC от Кинорадиомагия | Лицензия .torrent   [Информация о файле (нажмите для просмотра)] Формат: MKVКачество: HDRip-AVCВидео: MPEG-4 AVC, 1024 х 424, 23.976 fps, ~ 1480 Кбит/сАудио: AC3, 6 ch, 448 Кбит/с 1,44 Gb 884 8 4 февраля 2016 10:51 Заклятие / The Conjuring (2013) HDRip от Кинорадиомагия | КПК | Лицензия .torrent   [Информация о файле (нажмите для просмотра)] Кодек: х264Качество: HDRip | КПКВидео: MPEG-4 AVC, 480 х 200, 23.976 fps, 450 Кбит/сАудио: ААС LC, 2 ch, 128 Кбит/с 464,66 Mb 49 6 4 февраля 2016 10:51 Заклятие / The Conjuring (2013) BDRip 720p .torrent   [Информация о файле (нажмите для просмотра)] Перевод: Дублированный (лицензия) + ОригиналКодек: x264Качество: BDRip (источник: Blu-ray Disc)Видео: 1280x532 (2,40:1), 23.976 fps, 4309 kbpsАудио #1: AC-3, 6 ch, 640 kbps (Rus)Аудио #2: AC-3, 6 ch, 640 kbps (Eng)Субтитры: Русские (форсированные), Русские, АнглийскиеВидео: Идентификатор : 1 Формат : AVC Формат/Информация : Advanced Video Codec Профиль формата : [email protected] Параметр CABAC формата : Да Параметр ReFrames формата : 9 кадров Идентификатор кодека : V_MPEG4/ISO/AVC Продолжительность : 1 ч. 51 м. Битрейт : 4309 Кбит/сек Ширина : 1280 пикселей Высота : 532 пикселя Соотношение сторон : 2,40:1 Режим частоты кадров : Постоянный Частота кадров : 23,976 кадра/сек Цветовое пространство : YUV Субдискретизация насыщенности : 4:2:0 Битовая глубина : 8 бит Тип развёртки : Прогрессивная Бит/(Пиксели*Кадры) : 0.264 Размер потока : 3,28 Гбайт (75%) Заголовок : Release by N1NT3NDO Библиотека кодирования : x264 core 140 r2377 1ca7bb9 Настройки программы : cabac=1 / ref=9 / deblock=1:-3:-3 / analyse=0x3:0x133 / me=umh / subme=11 / psy=1 / psy_rd=1.00:0.00 / mixed_ref=1 / me_range=32 / chroma_me=1 / trellis=2 / 8x8dct=1 / cqm=0 / deadzone=21,11 / fast_pskip=0 / chroma_qp_offset=-2 / threads=12 / lookahead_threads=1 / sliced_threads=0 / nr=0 / decimate=0 / interlaced=0 / bluray_compat=0 / constrained_intra=0 / bframes=6 / b_pyramid=2 / b_adapt=2 / b_bias=0 / direct=3 / weightb=1 / open_gop=0 / weightp=2 / keyint=240 / keyint_min=23 / scenecut=40 / intra_refresh=0 / rc=2pass / mbtree=0 / bitrate=4309 / ratetol=1.0 / qcomp=0.60 / qpmin=0 / qpmax=69 / qpstep=4 / cplxblur=20.0 / qblur=0.5 / ip_ratio=1.40 / pb_ratio=1.30 / aq=1:1.00 Язык : English Default : Да Forced : НетАудио #1: Идентификатор : 2 Формат : AC-3 Формат/Информация : Audio Coding 3 Расширение режима : CM (complete main) Параметр Endianness формата : Big Идентификатор кодека : A_AC3 Продолжительность : 1 ч. 51 м. Вид битрейта : Постоянный Битрейт : 640 Кбит/сек Каналы : 6 каналов Расположение каналов : Front: L C R, Side: L R, LFE Частота : 48,0 КГц Битовая глубина : 16 бит Метод сжатия : С потерями Размер потока : 513 Мбайт (11%) Заголовок : Rus Язык : Russian Default : Да Forced : НетАудио #2: Идентификатор : 3 Формат : AC-3 Формат/Информация : Audio Coding 3 Расширение режима : CM (complete main) Параметр Endianness формата : Big Идентификатор кодека : A_AC3 Продолжительность : 1 ч. 51 м. Вид битрейта : Постоянный Битрейт : 640 Кбит/сек Каналы : 6 каналов Расположение каналов : Front: L C R, Side: L R, LFE Частота : 48,0 КГц Битовая глубина : 16 бит Метод сжатия : С потерями Размер потока : 513 Мбайт (11%) Заголовок : Eng Язык : English Default : Нет Forced : Нет 4,37 Gb 214 9 4 февраля 2016 10:51 Заклятие / The Conjuring (2013) BDRemux 1080p от GORESEWAGE | 3xDub, L1 .torrent   [Информация о файле (нажмите для просмотра)] Перевод 1: Профессиональный (дублированный) BD CEEПеревод 2: Профессиональный (дублированный) Не кинотеатральныйПеревод 3: Любительский (одноголосый закадровый) Хихикающий докторПеревод 4: Профессиональный (дублированный) Студия Postmodern (Ukrainian)Субтитры: Russian (Forced BD CEE, Full BD CEE, Full 2), Ukrainian (Forced DVD, Full DVD), English (Full, SDH, SDH Colored) Finnish (Full), French (Full), Greek (Full), Polish (Full), Portuguese (Full), Spanish (Full, Full Latin), Swedish (Full)Качество: BDRemux 1080p(The Conjuring 2013 Blu-ray 1080p AVC DTS HD MA5.1-TTG)Контейнер: MKVВидео: MPEG-4 AVC Video / 24745 kbps / 1920x1080p / 23,976 fps / 16:9 / High Profile 4.1Аудио 1: Russian / AC3 / 5.1 / 48 kHz / 640 kbps / 16-bit | Dub BD CEEАудио 2: Russian / AC3 / 5.1 / 48 kHz / 448 kbps / 16-bit | Dub (Не кинотеатральный)Аудио 3: Russian / DTS-HD MA / 5.1 / 48 kHz / 3571 kbps / 24-bit | VO Хихикающий докторАудио 4: Ukrainian / AC3 / 2.0 / 48 kHz / 192 kbps / 16-bit | Dub Студия PostmodernАудио 5: English / DTS-HD MA / 5.1 / 48 kHz / 3546 kbps / 24-bit | OriginalАудио 6: English / AC3 / 5.1 / 48 kHz / 640 kbps / 16-bit | Descriрtion 26,41 Gb 23 8 4 февраля 2016 10:51 Заклятие / The Conjuring (2013) BDRip 720p от GORESEWAGE | 3xDub, L1 .torrent   [Информация о файле (нажмите для просмотра)] Перевод 1: Профессиональный (дублированный) BD CEEПеревод 2: Профессиональный (дублированный) Не кинотеатральныйПеревод 3: Любительский (одноголосый закадровый) Хихикающий докторПеревод 4: Профессиональный (дублированный) Студия Postmodern (Ukrainian)Субтитры: Russian (Forced BD CEE, Full BD CEE, Full 2), Ukrainian (Forced DVD, Full DVD), English (Full, SDH, SDH Colored) Finnish (Full), French (Full), Greek (Full), Polish (Full), Portuguese (Full), Spanish (Full, Full Latin), Swedish (Full)Качество: BDRip 720p(HiDt)Контейнер: MKVВидео: MPEG-4 AVC Video / 7603 kbps / 1280x532p / 23,976 fps / 2.40:1 / High Profile 4.1Аудио 1: Russian / AC3 / 5.1 / 48 kHz / 640 kbps / 16-bit | Dub BD CEEАудио 2: Russian / AC3 / 5.1 / 48 kHz / 448 kbps / 16-bit | Dub (Не кинотеатральный)Аудио 3: Russian / DTS / 5.1 / 48 kHz / 1536 kbps / 24-bit | VO Хихикающий докторАудио 4: Ukrainian / AC3 / 2.0 / 48 kHz / 192 kbps / 16-bit | Dub Студия PostmodernАудио 5: English / DTS / 5.1 / 48 kHz / 1536 kbps / 24-bit | OriginalАудио 6: English / AC3 / 5.1 / 48 kHz / 640 kbps / 16-bit | Descriрtion 10,01 Gb 22 5 4 февраля 2016 10:51 Заклятие / The Conjuring (2013) BDRip 1080p от GORESEWAGE | 3xDub, L1 .torrent   [Информация о файле (нажмите для просмотра)] Перевод 1: Профессиональный (дублированный) BD CEEПеревод 2: Профессиональный (дублированный) Не кинотеатральныйПеревод 3: Любительский (одноголосый закадровый) Хихикающий докторПеревод 4: Профессиональный (дублированный) Студия Postmodern (Ukrainian)Субтитры: Russian (Forced BD CEE, Full BD CEE, Full 2), Ukrainian (Forced DVD, Full DVD), English (Full, SDH, SDH Colored) Finnish (Full), French (Full), Greek (Full), Polish (Full), Portuguese (Full), Spanish (Full, Full Latin), Swedish (Full)Качество: BDRip 1080p(HDMaNiAcS)Контейнер: MKVВидео: MPEG-4 AVC Video / 17500 kbps / 1920x798p / 23,976 fps / 2.40:1 / High Profile 4.1Аудио 1: Russian / AC3 / 5.1 / 48 kHz / 640 kbps / 16-bit | Dub BD CEEАудио 2: Russian / AC3 / 5.1 / 48 kHz / 448 kbps / 16-bit | Dub (Не кинотеатральный)Аудио 3: Russian / DTS / 5.1 / 48 kHz / 1536 kbps / 24-bit | VO Хихикающий докторАудио 4: Ukrainian / AC3 / 2.0 / 48 kHz / 192 kbps / 16-bit | Dub Студия PostmodernАудио 5: English / DTS / 5.1 / 48 kHz / 1536 kbps / 24-bit | OriginalАудио 6: English / AC3 / 5.1 / 48 kHz / 640 kbps / 16-bit | Descriрtion 17,54 Gb 19 2 4 февраля 2016 10:51 Заклятие / The Conjuring (2013) DVD9 | D .torrent   [Информация о файле (нажмите для просмотра)] Перевод: полное дублированиесубтитры: Кодек: MPEG2Качество: DVD9Видео: PAL 16:9 (720x576) VBR 6178 Kbps, 25.000 fpsЗвук 1: Dolby AC3, 6 ch, 48.0 KHz, 384 Kbpsрусский, английскийЗвук 2: Dolby AC3, 2 ch, 48.0 KHz, 192 Kbpsтурецкий 5,58 Gb 6 3 4 февраля 2016 10:51 Заклятие / The Conjuring (2013) BDRip 1080p от New-Team .torrent   [Информация о файле (нажмите для просмотра)] Перевод: Профессиональный (полное дублирование) + ОригинальныйСубтитры: русские, русские форсированные, английскиеКачество: BDRip 1080pКонтейнер: MKVВидео: AVC, 1920x798 (2.40:1), 13500 kbps, 23,976 fps, 0,367 bppАудио №1: русский / AC3 / 5.1 / 48 kHz / 640 kbps / 16 bit|| Аудио №2: английский / AC3 / 5.1 / 48 kHz / 640 kbps / 16 bit 11,53 Gb 85 8 4 февраля 2016 10:51 Заклятие / The Conjuring (2013) BDRip 1080p от Killbrain and Scarabey | Лицензия .torrent   [Информация о файле (нажмите для просмотра)] Перевод: русский профессиональный (полное дублирование)[Лицензия, BD EUR]Контейнер: MKVВидео: AVC / [email protected] /2 pass / 23,976 fps / 1920x798p (2,40:1) / 7,7 Mbps / 0.210Аудио 1: AC3 / 5.1 ch / 640 kbps / Русский дубляж, BD EURАудио 2: AC3 / 5.1 ch / 640 kbps / Английский original, BD EURСубтитры: [softsub SRT]Видео: Идентификатор : 1 Формат : AVC Формат/Информация : Advanced Video Codec Профиль формата : [email protected] Параметр CABAC формата : Да Параметр ReFrames формата : 4 кадра Идентификатор кодека : V_MPEG4/ISO/AVC Продолжительность : 1 ч. 51 м. Битрейт : 7700 Кбит/сек Ширина : 1920 пикселей Высота : 798 пикселей Соотношение сторон : 2,40:1 Режим частоты кадров : Постоянный Частота кадров : 23,976 кадра/сек Цветовое пространство : YUV Субдискретизация насыщенности : 4:2:0 Битовая глубина : 8 бит Тип развёртки : Прогрессивная Бит/(Пиксели*Кадры) : 0.210 Размер потока : 5,88 Гбайт (84%) Заголовок : The Conjuring (2013) Библиотека кодирования : x264 core 138 r2358 9e941d1 Настройки программы : cabac=1 / ref=4 / deblock=1:-3:-3 / analyse=0x3:0x113 / me=umh / subme=10 / psy=1 / psy_rd=1.00:0.05 / mixed_ref=1 / me_range=32 / chroma_me=1 / trellis=2 / 8x8dct=1 / cqm=0 / deadzone=21,11 / fast_pskip=0 / chroma_qp_offset=-3 / threads=3 / lookahead_threads=1 / sliced_threads=0 / nr=0 / decimate=0 / interlaced=0 / bluray_compat=0 / constrained_intra=0 / bframes=6 / b_pyramid=2 / b_adapt=2 / b_bias=0 / direct=3 / weightb=1 / open_gop=0 / weightp=2 / keyint=240 / keyint_min=24 / scenecut=40 / intra_refresh=0 / rc_lookahead=60 / rc=2pass / mbtree=0 / bitrate=7700 / ratetol=1.0 / qcomp=0.65 / qpmin=0 / qpmax=69 / qpstep=4 / cplxblur=20.0 / qblur=0.5 / vbv_maxrate=40000 / vbv_bufsize=30000 / nal_hrd=none / ip_ratio=1.40 / pb_ratio=1.30 / aq=1:0.80 Язык : English Default : Да Forced : НетАудио #1: Идентификатор : 2 Формат : AC-3 Формат/Информация : Audio Coding 3 Расширение режима : CM (complete main) Параметр Endianness формата : Big Идентификатор кодека : A_AC3 Продолжительность : 1 ч. 51 м. Вид битрейта : Постоянный Битрейт : 640 Кбит/сек Каналы : 6 каналов Расположение каналов : Front: L C R, Side: L R, LFE Частота : 48,0 КГц Битовая глубина : 16 бит Метод сжатия : С потерями Размер потока : 513 Мбайт (7%) Заголовок : AC3 / 5.1 ch / 640 kbps / Русский дубляж, BD EUR Язык : Russian Default : Да Forced : НетАудио #2: Идентификатор : 3 Формат : AC-3 Формат/Информация : Audio Coding 3 Расширение режима : CM (complete main) Параметр Endianness формата : Big Идентификатор кодека : A_AC3 Продолжительность : 1 ч. 51 м. Вид битрейта : Постоянный Битрейт : 640 Кбит/сек Каналы : 6 каналов Расположение каналов : Front: L C R, Side: L R, LFE Частота : 48,0 КГц Битовая глубина : 16 бит Метод сжатия : С потерями Размер потока : 513 Мбайт (7%) Заголовок : AC3 / 5.1 ch / 640 kbps / Английский original, BD EUR Язык : English Default : Нет Forced : Нет 7,02 Gb 254 10 4 февраля 2016 10:51 Заклятие / The Conjuring (2013) HDRip от New-team | Лицензия .torrent   [Информация о файле (нажмите для просмотра)] Перевод: Дубляж - ЛицензияКачество: HDRip [BDRip 1080p]Формат: AVIВидео: 656x272 (2.41:1), 23.976 fps, XviD build 73 ~794 kbps avg, 0.19 bit/pixelАудио: 48 kHz, MPEG Layer 3, 2 ch, ~128.00 kbps avg 746,39 Mb 141 10 4 февраля 2016 10:51 Заклятие / The Conjuring (2013) HDRip от New-team | Лицензия .torrent   [Информация о файле (нажмите для просмотра)] Перевод: Дубляж - ЛицензияКачество: HDRip [BDRip 1080p]Формат: AVIВидео: 720x304 (2.37:1), 23.976 fps, XviD build 73 ~1477 kbps avg, 0.28 bit/pixelАудио: 48 kHz, AC3 Dolby Digital, 3/2 (L,C,R,l,r) + LFE ch, ~384 kbps 1,46 Gb 859 19 4 февраля 2016 10:51 Заклятие / The Conjuring (2013) BDRip от HQCLUB | Лицензия .torrent   [Информация о файле (нажмите для просмотра)] Перевод: Профессиональный (полное дублирование) CEE + Оригинал (английский)Субтитры: русские (полные, форсированные), английские (обычные, SDH, SDH-colored), украинские (полные, форсированные)Формат: AVIКачество: BDRip (источник:Видео: 720x304 (2.37:1), 23.976 fps, XviD build 65 ~1889 kbps avg, 0.36 bit/pixelАудио #1: 48 kHz, AC3 Dolby Digital, 3/2 (L,C,R,l,r) + LFE ch, ~448 kbps avg (DUB)Аудио #2: 48 kHz, AC3 Dolby Digital, 3/2 (L,C,R,l,r) + LFE ch, ~448 kbps avg (ENG)Аудио #3: 48 kHz, AC3 Dolby Digital, 2/0 (L,R) ch, ~192 kbps avg (UKR)(отдельно)Аудио #4: 48 kHz, AC3 Dolby Digital, 3/2 (L,C,R,l,r) + LFE ch, ~448 kbps avg (VO)(отдельно) 2,18 Gb 873 36 4 февраля 2016 10:51 Заклятие / The Conjuring (2013) BDRip от New-Team .torrent   [Информация о файле (нажмите для просмотра)] Перевод: Профессиональный (полное дублирование)Качество: BDRip |sampleКонтейнер: AVIВидео: XviD, 720x304 (2.35:1), 2322 kbps, 23,976 fps, 0,443 bppАудио: AC3 / 5.1 / 48 kHz / 448 kbps / 16 bit 2,18 Gb 15 1 4 февраля 2016 10:50 Заклятие / The Conjuring (2013) BDRip-AVC от ExKinoRay | D .torrent   [Информация о файле (нажмите для просмотра)] Перевод: ДублированныйСубтитры: Русские, английскиеКодек: H.264Формат: MKVКачество: BDRip-AVC (Blu-Ray Remux (1080р))Видео: MPEG-4 AVC, 2617 Кбит/с, 1024х424Звук: Русский, английский (АС3, 6 ch, 448 Кбит/с) 2,75 Gb 9 3 4 февраля 2016 10:50 Заклятие / The Conjuring (2013) BDRip 1080p .torrent   [Информация о файле (нажмите для просмотра)] Перевод: Дублированный + ОригиналКодек: x264Качество: BDRip 1080pВидео: 1920x800, 8645 Kbps, 23.976 fpsАудио #1: AC-3, 6 ch, 640 kbps (Rus)Аудио #2: AC-3, 6 ch, 640 kbps (Eng)Субтитры: русские (полные, форсированные), английскиеВидео: Идентификатор : 1 Формат : AVC Формат/Информация : Advanced Video Codec Профиль формата : [email protected] Параметр CABAC формата : Да Параметр ReFrames формата : 5 кадров Идентификатор кодека : V_MPEG4/ISO/AVC Продолжительность : 1 ч. 51 м. Битрейт : 8645 Кбит/сек Ширина : 1920 пикселей Высота : 800 пикселей Соотношение сторон : 2,40:1 Режим частоты кадров : Постоянный Частота кадров : 23,976 кадра/сек Цветовое пространство : YUV Субдискретизация насыщенности : 4:2:0 Битовая глубина : 8 бит Тип развёртки : Прогрессивная Бит/(Пиксели*Кадры) : 0.235 Размер потока : 6,61 Гбайт (85%) Заголовок : Rip by Boriy Библиотека кодирования : x264 core 138 r2358 9e941d1 Настройки программы : cabac=1 / ref=5 / deblock=1:-3:-3 / analyse=0x3:0x113 / me=umh / subme=11 / psy=1 / psy_rd=1.00:0.00 / mixed_ref=1 / me_range=32 / chroma_me=1 / trellis=2 / 8x8dct=1 / cqm=0 / deadzone=21,11 / fast_pskip=0 / chroma_qp_offset=-2 / threads=12 / lookahead_threads=1 / sliced_threads=0 / nr=0 / decimate=0 / interlaced=0 / bluray_compat=0 / constrained_intra=0 / bframes=6 / b_pyramid=2 / b_adapt=2 / b_bias=0 / direct=3 / weightb=1 / open_gop=0 / weightp=2 / keyint=240 / keyint_min=23 / scenecut=40 / intra_refresh=0 / rc=2pass / mbtree=0 / bitrate=8645 / ratetol=1.0 / qcomp=0.60 / qpmin=0 / qpmax=69 / qpstep=4 / cplxblur=20.0 / qblur=0.5 / ip_ratio=1.40 / pb_ratio=1.30 / aq=1:0.80 Язык : English Default : Да Forced : НетАудио #1: Идентификатор : 2 Формат : AC-3 Формат/Информация : Audio Coding 3 Расширение режима : CM (complete main) Параметр Endianness формата : Big Идентификатор кодека : A_AC3 Продолжительность : 1 ч. 51 м. Вид битрейта : Постоянный Битрейт : 640 Кбит/сек Каналы : 6 каналов Расположение каналов : Front: L C R, Side: L R, LFE Частота : 48,0 КГц Битовая глубина : 16 бит Метод сжатия : С потерями Размер потока : 513 Мбайт (6%) Заголовок : Дубляж Язык : Russian Default : Да Forced : НетАудио #2: Идентификатор : 3 Формат : AC-3 Формат/Информация : Audio Coding 3 Расширение режима : CM (complete main) Параметр Endianness формата : Big Идентификатор кодека : A_AC3 Продолжительность : 1 ч. 51 м. Вид битрейта : Постоянный Битрейт : 640 Кбит/сек Каналы : 6 каналов Расположение каналов : Front: L C R, Side: L R, LFE Частота : 48,0 КГц Битовая глубина : 16 бит Метод сжатия : С потерями Размер потока : 513 Мбайт (6%) Заголовок : Оригинал Язык : English Default : Нет Forced : Нет 7,76 Gb 50 2 4 февраля 2016 10:50 Заклятие / The Conjuring (2013) HDRip от Scarabey | Лицензия .torrent   [Информация о файле (нажмите для просмотра)] Перевод: Дубляж - ЛицензияКачество: HDRipФормат: AVIВидео: 720x304 (2.37:1), 23.976 fps, XviD build 73 ~1458 kbps avg, 0.28 bit/pixelАудио: 48 kHz, AC3 Dolby Digital, 3/2 (L,C,R,l,r) + LFE ch, ~448 kbps 1,5 Gb 1752 26 4 февраля 2016 10:50 Заклятие / The Conjuring (2013) HDRip от Scarabey | Лицензия .torrent   [Информация о файле (нажмите для просмотра)] Перевод: Дубляж - ЛицензияКачество: HDRipФормат: AVIВидео: 688x288 (2.39:1), 23.976 fps, XviD build 73 ~793 kbps avg, 0.17 bit/pixelАудио: 48 kHz, MPEG Layer 3, 2 ch, ~128.00 kbps avg 745,61 Mb 94 9 4 февраля 2016 10:50 Заклятие / The Conjuring (2013) HDRip-AVC | D | Лицензия .torrent   [Информация о файле (нажмите для просмотра)] Перевод: ДубляжКодек: x264Качество: HDRip-AVCВидео: 784x328 (2.40:1), 23.976 fps, 858 kbps, 0.139 bit/pixelЗвук: 48 / 24 KHz, AAC-HE, 2/0 (L,R) ch, ~72.00 kbpsСубтитры: Отсутствуют 745,69 Mb 96 4 4 февраля 2016 10:50 Заклятие / The Conjuring (2013) BDRip 1080p от DHT-Movies | Лицензия .torrent   [Информация о файле (нажмите для просмотра)] Субтитры: ... Русские / Английские UTF-8 (full)Формат: ................. : Mkv 6,08 Gb 18 3 4 февраля 2016 10:50 Заклятие / The Conjuring (2013) BDRip-AVC от ed_rez | Лицензия .torrent   [Информация о файле (нажмите для просмотра)] Перевод: Профессиональный (Дублированный) [Лицензия BluRay CEE]Видео: х264, 1126х468 (2.35:1), 23.976 fps, 2365 Кbps, 0.187 bit/pixelАудио 1: AAC-LC, 6 ch, VBR, 48 KHz, 224 Kbps[rus]Аудио 2: AAC-LC, 6 ch, VBR, 48 KHz, 200 Kbps[eng] 2,18 Gb 25 5 4 февраля 2016 10:50 Заклятие / The Conjuring (2013) BDRip-AVC от Leonardo and Scarabey | Лицензия .torrent   [Информация о файле (нажмите для просмотра)] Перевод: Профессиональный (полное дублирование) ЛицензияСубтитры: Русские, английскиеФормат: MKVВидео кодек: MPEG-4 AVC Аудио кодек: AC3Видео: AVC, 960x400 (2.40:1) at 23.976 fps, AVC at 1600 kbps avg, 0.174 bit/pixelАудио: 48 kHz, AC3 Dolby Digital, 3/2 (L,C,R,l,r) + LFE ch, 448.00 kbps - RussianСубтитры: Русские, английские 1,63 Gb 29 5 4 февраля 2016 10:50 Заклятие / The Conjuring (2013) BDRip-AVC от HELLYWOOD | D | Лицензия .torrent   [Информация о файле (нажмите для просмотра)] Перевод: Профессиональный (полное дублирование)Субтитры: Русские (полные + форс.), английскиеКачество: BDRip-AVC [The Conjuring 2013 1080p BluRay AVC DTS HD MA 5 1 PublicHD]Формат: MKVВидео: x.264, 1044x434 (2,40:1), 23,976 fps, 1345 Кbps, 0.124 bit/pixelАудио#1: 48 kHz, AC3 Dolby Digital, 3/2 (L,C,R,l,r) + LFE ch, 448.00 kbps |RUSАудио#2: 48 kHz, AC3 Dolby Digital, 3/2 (L,C,R,l,r) + LFE ch, 448.00 kbps |ENG 1,9 Gb 34 2 4 февраля 2016 10:50 Заклятие / The Conjuring (2013) BDRip 720p от Leonardo and Scarabey | Лицензия .torrent   [Информация о файле (нажмите для просмотра)] Перевод: Профессиональный (полное дублирование) ЛицензияСубтитры: Русские, английскиеФормат: MKVВидео кодек: MPEG-4 AVC Аудио кодек: AC3Видео: AVC, 1280x532 (2.40:1) at 23.976 fps, AVC at 3036 kbps avg, 0.186 bit/pixelАудио: 48 kHz, AC3 Dolby Digital, 3/2 (L,C,R,l,r) + LFE ch, 640.00 kbps - RussianСубтитры: Русские, английские 2,93 Gb 180 8 4 февраля 2016 10:50 Заклятие / The Conjuring (2013) BDRemux 1080p | Лицензия, L1 .torrent   [Информация о файле (нажмите для просмотра)] Качество: Blu-Ray Remux (1080p)Видео: MPEG-4 AVC, 24.7 Мбит/с, 1920x1080, 23.976 кадр/сАудио: Русский (AC3, 6 ch, 640 Кбит/с), (DTS-HD MA, 6 ch, 3571 Кбит/с), английский (DTS-HD MA, 6 ch, 3546 Кбит/с)Перевод: Дублированный (лицензия), любительский (одноголосый закадровый)Субтитры: АнглийскиеСубтитры: (Russian (Forced, Blu-ray CEE), Russian (Blu-ray CEE), English, English (SDH), English (SDH-COLORED))Видео: Идентификатор : 1 Формат : AVC Формат/Информация : Advanced Video Codec Профиль формата : [email protected] Параметр CABAC формата : Да Параметр ReFrames формата : 2 кадра Идентификатор кодека : V_MPEG4/ISO/AVC Продолжительность : 1 ч. 51 м. Вид битрейта : Переменный Ширина : 1920 пикселей Высота : 1080 пикселей Соотношение сторон : 16:9 Режим частоты кадров : Постоянный Частота кадров : 23,976 кадра/сек Цветовое пространство : YUV Субдискретизация насыщенности : 4:2:0 Битовая глубина : 8 бит Тип развёртки : Прогрессивная Язык : English Default : Да Forced : ДаАудио #1: Идентификатор : 2 Формат : AC-3 Формат/Информация : Audio Coding 3 Расширение режима : CM (complete main) Параметр Endianness формата : Big Идентификатор кодека : A_AC3 Продолжительность : 1 ч. 51 м. Вид битрейта : Постоянный Битрейт : 640 Кбит/сек Каналы : 6 каналов Расположение каналов : Front: L C R, Side: L R, LFE Частота : 48,0 КГц Битовая глубина : 16 бит Метод сжатия : С потерями Размер потока : 513 Мбайт (2%) Заголовок : Дублированный (Лицензия) Язык : Russian Default : Да Forced : ДаАудио #2: Идентификатор : 3 Формат : DTS Формат/Информация : Digital Theater Systems Профиль формата : MA / Core Режим : 16 Параметр Endianness формата : Big Идентификатор кодека : A_DTS Продолжительность : 1 ч. 51 м. Вид битрейта : Переменный Битрейт : Неизвестно / 1509 Кбит/сек Каналы : 6 каналов Расположение каналов : Front: L C R, Side: L R, LFE Частота : 48,0 КГц Битовая глубина : 24 бит Метод сжатия : Без потерь / Lossy Язык : Russian Default : Нет Forced : НетАудио #3: Идентификатор : 4 Формат : DTS Формат/Информация : Digital Theater Systems Профиль формата : MA / Core Режим : 16 Параметр Endianness формата : Big Идентификатор кодека : A_DTS Продолжительность : 1 ч. 51 м. Вид битрейта : Переменный Битрейт : Неизвестно / 1509 Кбит/сек Каналы : 6 каналов Расположение каналов : Front: L C R, Side: L R, LFE Частота : 48,0 КГц Битовая глубина : 24 бит Метод сжатия : Без потерь / Lossy Язык : English Default : Нет Forced : Нет 25,41 Gb 8 6 4 февраля 2016 10:50 Заклятие / The Conjuring (2013) BDRip 720p от HQ-ViDEO | Лицензия .torrent   [Информация о файле (нажмите для просмотра)] Перевод: Профессиональный дублированный /Лицензия/Субтитры: Русские (форс. + полные), Английские (3 вида) | отключаемые, *.srt|Видео: x.264, 1280x534 (2.40:1), ~5337 kbps avg, 23,976 fpsАудио #1: AC3 Dolby Digital, 48 KHz, ~640 kbps, 3/2 (L,C,R,l,r) + LFE ch/RUS/Аудио #2: AC3 Dolby Digital, 48 KHz, ~640 kbps, 3/2 (L,C,R,l,r) + LFE ch/ENG/ 5,18 Gb 18 4 4 февраля 2016 10:50 Заклятие / The Conjuring (2013) BDRip от HQ-ViDEO | Лицензия .torrent   [Информация о файле (нажмите для просмотра)] Перевод: Профессиональный дублированный /Лицензия/Субтитры: Русские (форс. + полные), Английские (3 вида)Видео: XviD, 720x304 (2.37:1), ~1880 kbps avg, 23,976 fpsАудио #1: AC3 Dolby Digital, 48 KHz, ~448 kbps, 3/2 (L,C,R,l,r) + LFE ch/RUS/Аудио #2: AC3 Dolby Digital, 48 KHz, ~448 kbps, 3/2 (L,C,R,l,r) + LFE ch/ENG/ 2,18 Gb 189 4 4 февраля 2016 10:50 Заклятие / The Conjuring (2013) Blu-Ray 1080p | D | Лицензия .torrent   [Информация о файле (нажмите для просмотра)] Качество: Blu-Ray (1080p)Видео: MPEG-4 AVC, 24.7 Мбит/с, 1920x1080, 23.976 кадр/сАудио: Русский, английский, чешский, итальянский, польский, испанский, тайский (AC3, 6 ch, 640 Кбит/с), английский (DTS-HD MA, 6 ch, 3546 Кбит/с), турецкий (AC3, 2 ch, 192 Кбит/с)Перевод: Дублированный [лицензия]Субтитры: Английские, арабские, китайские, чешские, греческие, иврит, итальянские, корейские, польские, португальские, румынские, русские, испанские, тайские, турецкие 32,4 Gb 5 6

gig-torrent.net

Скачать фильм Заклятие через торрент в хорошем качестве бесплатно HDRip

Размер: 2.06 GB | Добавлен: 3 года 11 мес. назад | Торрент скачан:2696 раз
Реклама Дарим 3000 рублей за регистрацию, не упусти свой шанс получить шикарный бонус!!!

30-10-2013 02:48 Заклятие Скачать торрент  

Заклятие / The Conjuring

Год выпуска: 2013Страна: СШАЖанр: ужасы, триллер, биография,Продолжительность: 01.51.57Перевод: Дубляж (Лицензия)Режиссер: Джеймс Ван Бюджет: $20 000 000Премьера (мир): 8 июня 2013Премьера (РФ): 25 июля 2013 В ролях: Вера Фармига, Патрик Уилсон, Рон Ливингстон, Лили Тейлор, Шэнли Касвелл, Хейли МакФарланд, Джои Кинг, Маккензи Фой, Кайла Дивер, Шэнон Кук-Чан

Описание: В основе картины лежит реальная история семьи Перрон, которые утверждали, что жили в окружении привидений, как добрых, так и злых. Духи населяли дом на Род-Айленде, в котором Перроны проживали в семидесятых годах XX века.

Качество: HDRipФормат: AVIВидео кодек: XviDАудио кодек: AC3Видео: 720x304 (2.37:1), 23.976 fps, XviD build 50 ~1727 kbps avg, 0.33 bit/pixelАудио#1: 48 kHz, AC3 Dolby Digital, 3/2 (L,C,R,l,r) + LFE ch, ~448 kbps (Rus)Аудио#2: 48 kHz, AC3 Dolby Digital, 3/2 (L,C,R,l,r) + LFE ch, ~448 kbps (Eng)ОбщееПолное имя : D:СкаченныеСкаченныеZakljatie.2013.D.HDRip.2100MB.aviФормат : AVIФормат/Информация : Audio Video InterleaveПрофиль формата : OpenDMLРазмер файла : 2,06 ГбайтПродолжительность : 1 ч. 51 м.Общий поток : 2630 Кбит/секПрограмма кодирования : VirtualDubMod 1.5.10.3 | www.virtualdub-fr.org || (build 2550/release)Библиотека кодирования : VirtualDubMod build 2550/release

ВидеоИдентификатор : 0Формат : MPEG-4 VisualПрофиль формата : Advanced [email protected]Параметр BVOP формата : 2Параметр QPel формата : НетПараметр GMC формата : Без точки переходаПараметр матрицы формата : ВыборочнаяИдентификатор кодека : XVIDИдентификатор кодека/Подсказка : XviDПродолжительность : 1 ч. 51 м.Битрейт : 1716 Кбит/секШирина : 720 пикселейВысота : 304 пикселяСоотношение сторон : 2,35:1Частота кадров : 23,976 кадра/секЦветовое пространство : YUVСубдискретизация насыщенности : 4:2:0Битовая глубина : 8 битТип развёртки : ПрогрессивнаяМетод сжатия : С потерямиБит/(Пиксели*Кадры) : 0.327Размер потока : 1,34 Гбайт (65%)Библиотека кодирования : XviD 1.2.1 (UTC 2008-12-04)

Аудио #1Идентификатор : 1Формат : AC-3Формат/Информация : Audio Coding 3Расширение режима : CM (complete main)Параметр Endianness формата : BigИдентификатор кодека : 2000Продолжительность : 1 ч. 51 м.Вид битрейта : ПостоянныйБитрейт : 448 Кбит/секКаналы : 6 каналовРасположение каналов : Front: L C R, Side: L R, LFEЧастота : 48,0 КГцБитовая глубина : 16 битМетод сжатия : С потерямиРазмер потока : 359 Мбайт (17%)Выравнивание : Разделение по промежуткамПродолжительность промежутка : 42 мс. (1,00 видеокадр)Время предзагрузки промежутка : 500 мс.

Аудио #2Идентификатор : 2Формат : AC-3Формат/Информация : Audio Coding 3Расширение режима : CM (complete main)Параметр Endianness формата : BigИдентификатор кодека : 2000Продолжительность : 1 ч. 51 м.Вид битрейта : ПостоянныйБитрейт : 448 Кбит/секКаналы : 6 каналовРасположение каналов : Front: L C R, Side: L R, LFEЧастота : 48,0 КГцБитовая глубина : 16 битМетод сжатия : С потерямиРазмер потока : 359 Мбайт (17%)Выравнивание : Разделение по промежуткамПродолжительность промежутка : 42 мс. (1,00 видеокадр)Время предзагрузки промежутка : 500 мс.

Скачать Заклятие через торрент http://pic.pb.wtf/images/4/juf36.jpg Скачать фильм Заклятие через торрент бесплантно в хорошем качестве Описание: В основе картины лежит реальная история семьи Перрон, которые утверждали, что жили в окружении привидений, как добрых, так и ... 2013-10-30 02:48 9.8 10 65

Loading...

Loading...

% Раздел Тема Автор DL S | L
Фильмы 2016 [DVDrip, WEB-DLRip, HDrip] (DUB, MVO) [ 691 MB ] Заклятие 2 / The Conjuring 2 [2016 HDRip PsYcho Скачать
Фильмы 2016 [DVDrip, WEB-DLRip, HDrip] (DUB, MVO) [ 1.46 GB ] Заклятие 2 / The Conjuring 2 [2016 BDRip] - [] Twi7ter Скачать
Фильмы [HD 720p, 1080p] (Хороший звук DUB, MVO) [ 14.23 GB ] Заклятие 2 / The Conjuring 2 [2016 BDRip 1080p / ] Ворон Скачать
Фильмы (Blu-ray, BD-Remux, HDDVD) [ 24.89 GB ] Заклятие 2 / The Conjuring 2 [2016 BDRemux 1080p от ExKinoRay] Russian Mafia Скачать
Фильмы (Blu-ray, BD-Remux, HDDVD) [ 36.77 GB ] Заклятие 2 / The Conjuring 2 [2016 Blu-ray CEE 1080p] DUB bober100 Скачать
Фильмы 2016 [DVDrip, WEB-DLRip, HDrip] (DUB, MVO) [ 2.18 GB ] Заклятие 2 / The Conjuring 2 [2016 BDRip] - [] Twi7ter Скачать
Фильмы [HD 720p, 1080p] (Хороший звук DUB, MVO) [ 15.43 GB ] Заклятие / The Conjuring [2013 BDRip 1080p by msltel] DUB 2 x AVO VO msltel Скачать

Последний раз редактировалось: francuz (2013-11-09 19:21), всего редактировалось 7 раз(а)

Рекламный пират

30-10-2013 03:24 Заклятие Скачать торрент  

В кино ходил, ничё так фильмец, попугаться можно !

30-10-2013 03:27 Заклятие Скачать торрент  

что-то ни на один из файлообменник не могу сэмпл загрузить

30-10-2013 03:31 Заклятие Скачать торрент  

francuz писал(а):

что-то ни на один из файлообменник не могу сэмпл загрузить подскажите пожалуйста у кого-нибудь загрузился сэмпл? у меня ни на одном плеере не воспроизводит

30-10-2013 06:38 Заклятие Скачать торрент  

Сэмпл воспроизводит,качество супер.Спасибо!

31-10-2013 09:06 Заклятие Скачать торрент  

посмотрим люблю ужастики

03-11-2013 21:36 Заклятие Скачать торрент  

Вы хоть знаете, что такое "Сэмпл"???

08-11-2013 21:09 Заклятие Скачать торрент  

DredRockFox писал(а):

Вы хоть знаете, что такое "Сэмпл"???

Расскажи, кэп, а то кроме тебя умных походу нет.

11-11-2013 15:34 Заклятие Скачать торрент  

DredRockFox писал(а):

Вы хоть знаете, что такое "Сэмпл"???

ну не томи уже, а то походу все только вид делают, что знают.

Pекламный агент PB

12-11-2013 16:12 Заклятие Скачать торрент  

Жуть сташная!!!!!!!

16-11-2013 06:03 Заклятие Скачать торрент  

Давно не видел нормальных ужасов!Фильм класс!Ждем второй Астрал

Дорогой пользователь! Огромная просьба, поблагодарите релизера, оцените раздачу и оставьте свои комментарий, если Вы скачали Заклятие через торрент бесплатно! Внесите свою лепту в развитие PiratBit!

Комментировать посты могут только пользователи прошедшие не сложную регистрацию

Заклятие через торрент Скачать бесплатно Заклятие Заклятие скачать торрент Заклятие смотреть онлайн Cкачать фильм Заклятие бесплатно Заклятие скачать торрент в хорошем качестве Заклятие смотреть онлайн бесплатно в хорошем качестве

Вы не можете начинать темыВы не можете отвечать на сообщенияВы не можете редактировать свои сообщенияВы не можете удалять свои сообщенияВы не можете голосовать в опросахВы не можете прикреплять файлы к сообщениямВы можете скачивать файлы

piratbit.ru

Скачать фильм Заклятие через торрент в хорошем качестве бесплатно HDRip

Раздают: 3 [ 0 KB/s ]
Размер: 1.37 GB | Добавлен: 3 года 8 мес. назад | Торрент скачан:3222 раза
Реклама Дарим 3000 рублей за регистрацию, не упусти свой шанс получить шикарный бонус!!!

30-10-2013 06:17 Заклятие Скачать торрент  

Заклятие / The Conjuring

Год выпуска: 2013Страна: СШАЖанр: ужасы, триллер, биографияПродолжительность: 01:51:57Перевод: Профессиональный (полное дублирование) [Лицензия]

Режиссер: Джеймс Ван / James WanВ ролях: Вера Фармига (Lorraine Warren), Патрик Уилсон (Ed Warren), Рон Ливингстон (Roger Perron), Лили Тейлор (Carolyn Perron), Шэнли Касвелл (Andrea), Хейли МакФарланд (Nancy), Джои Кинг (Christine), Маккензи Фой (Cindy), Кайла Дивер (April), Шэннон Кук-Чун (Drew), Джон Бразертон (Brad), Стерлинг Джеринс (Judy Warren)

Описание: В основе картины лежит реальная история семьи Перрон, которые утверждали, что жили в окружении привидений, как добрых, так и злых. Духи населяли дом на Род-Айленде, в котором Перроны проживали в семидесятых годах XX века.

Рейтингkinopoisk.ru: 7.494 (23 584)imdb.com: 7.60 (102 886)MPAA: R - Лицам до 17 лет обязательно присутствие взрослогоБюджет: $20 000 000Сборы в США: $137 389 479Сборы в России: $10 082 247Сборы в мире: $312 489 479Мировая премьера: 8 июня 2013Релиз на DVD: 5 декабря 2013Релиз на Blu-ray: 5 декабря 2013

  • Качество: HDRip
  • Формат: AVI
  • Видео кодек: XviD
  • Аудио кодек: AC3
  • Видео: XviD, 720x304 (2.35:1), 1290 kbps, 23,976 fps, 0,246 bpp
  • Аудио: AC3 / 5.1 / 48 kHz / 448 kbps / 16 bit
    • Лоррэйн Уоррен сыграла эпизодическую роль пожилой женщины в первом ряду в классе, когда Каролин слушает презентацию Уорренов.
    • Андреа Перрон написала роман в трех частях на основе событий, происходивших в ее доме. Книга вышла под названием «Дом тьмы, дом света» (House of Darkness, House of Light). События, которые она описала, отражены в фильме. Сама Перрон относится к фильму как к произведению искусства, а не как к художественному произведению.
    • Лоррэйн Уоррен и Андреа Перрон (Andrea Perron) работали в качестве консультантов режиссера Джеймса Вана и сценаристов этого фильма. Они оба утверждают, что фильм точно отражает реальную историю того, что происходило с семьей Перрон на протяжении 10 лет их проживания на ферме.
    • Эд Уоррен и Лоррэйн Уоррен исследовали дом семьи Перрон с 1973 по 1974 год.
    • Фильм, основанный на истории с домом семьи Перрон, собирались снять на протяжении 20 лет. Впервые эта история всплыла, когда Эд Уоррен показал запись своего интервью с Каролин Перрон продюсеру Тони ДеРоза-Грюнду.
    • Режиссер Джеймс Ван пытался передать атмосферу фильмов ужасов 1970-х годов.
    • Для подготовки к своей роли Лили Тейлор просматривала фильм «Изгоняющий дьявола» (1973).
    • Реальная кукла Аннабель была тряпичной, а не сломанной фарфоровой куклой, как изображено в фильме.
    • Это второй раз, когда композитор фильма Джозеф Бишара исполнил роль главного призрака в фильме Джеймса Вана. Предыдущим фильмом был «Астрал» (2010).
    • Штат Род-Айленд не требует от продавцов домов рассказывать о зарегистрированных случаях паранормальных явлений потенциальным покупателям. Вот почему семейство Перрон не знало о всех случившихся там событиях.
    • Кинокамера, которую используют Уоренны, - это Bolex h26 Rex-5, выпускавшаяся с 1966 по 1976 год. Отличительной особенностью этой механической камеры является необходимость завода пружинного механизма после каждых 40 секунд съемки, при этом камера вмещает в себя лишь 30 метров (2,5 минуты) пленки. Во всех сценах, где задействована камера, ей снимают больше минуты без всякого завода пружины, свободно отпуская ручку завода, что может привести к поломке камеры.
    • Восемь поколений жили и умерли в доме, прежде чем Перроны въехали туда. Андреа Перрон предполагает, что некоторые из духов этих семей никогда не покидали дом. В этом доме было два самоубийства, одна смерть от яда, изнасилование и убийство 11-летней девочки, два утопления и случай, когда четверо мужчин замерзли насмерть. Большинство смертей произошло в семье Арнольд. Вирсавия Шерман как раз из этой семьи.
    • Настоящую Вирсавию Шерман подозревали в колдовстве и убийстве несовершеннолетнего ребенка, но ее имя было юридически очищено, после того как суд признал ее невиновной. Она умерла естественной смертью в 1885 году, а не через повешение, как показано в фильме. А похоронена она в Харрисвилле (Беррилвилл, Род-Айленд, США).
    • еще 10 фактов
    • Когда Эд Уоррен и Лоррэйн Уоррен слушают записанное интервью, стрелка, показывающая уровень звука на проигрывателе, не двигается, как должна при воспроизведении звуковой дорожки.
    • В сцене с болотом виден кипарис. Однако они растут гораздо южнее Род-Айленда.
    • Белый грузовик GMC, который тянет за собой семейный микроавтобус, появился только в 1973 году, а семья въехала в дом в 1971-м.
    • Когда Джуди спускается по лестнице, над ней можно заметить детектор дыма. Хотя такие детекторы были доступны в 1968 году, но тогда они были выполнены в форме пчелиного улья, а не в форме диска, как современные.
    • еще 1 ошибка
    Format : AVIFormat/Info : Audio Video InterleaveFile size : 1.37 GiBDuration : 1h 51mnOverall bit rate : 1 748 KbpsMovie name : Zakljatie.2013.D.HDRip.1400MBWriting application : VirtualDubMod 1.5.10.3 | www.virtualdub-fr.org || (build 2550/release)

    VideoID : 0Format : MPEG-4 VisualFormat profile : Advanced [email protected] settings, BVOP : 2Format settings, QPel : NoFormat settings, GMC : No warppointsFormat settings, Matrix : CustomCodec ID : XVIDCodec ID/Hint : XviDDuration : 1h 51mnBit rate : 1 291 KbpsWidth : 720 pixelsHeight : 304 pixelsDisplay aspect ratio : 2.35:1Frame rate : 23.976 fpsColor space : YUVChroma subsampling : 4:2:0Bit depth : 8 bitsScan type : ProgressiveCompression mode : LossyBits/(Pixel*Frame) : 0.246Stream size : 1.01 GiB (74%)Writing library : XviD 1.2.1 (UTC 2008-12-04)

    AudioID : 1Format : AC-3Format/Info : Audio Coding 3Mode extension : CM (complete main)Codec ID : 2000Duration : 1h 51mnBit rate mode : ConstantBit rate : 448 KbpsChannel(s) : 6 channelsChannel positions : Front: L C R, Side: L R, LFESampling rate : 48.0 KHzBit depth : 16 bitsCompression mode : LossyStream size : 359 MiB (26%)Alignment : Split accross interleavesInterleave, duration : 42 ms (1.00 video frame)Interleave, preload duration : 500 ms

    Скачать Заклятие через торрент http://i2.imageban.ru/out/2013/10/30/653fea15e71b5d049b2b061b767e9a80.png Скачать фильм Заклятие через торрент бесплантно в хорошем качестве Описание: В основе картины лежит реальная история семьи Перрон, которые утверждали, что жили в окружении привидений, как добрых, так и ... 2014-01-30 13:35 9.7 10 111

    Loading...

    Loading...

    % Раздел Тема Автор DL S | L
    Фильмы 2016 [DVDrip, WEB-DLRip, HDrip] (DUB, MVO) [ 691 MB ] Заклятие 2 / The Conjuring 2 [2016 HDRip PsYcho Скачать
    Фильмы 2016 [DVDrip, WEB-DLRip, HDrip] (DUB, MVO) [ 1.46 GB ] Заклятие 2 / The Conjuring 2 [2016 BDRip] - [] Twi7ter Скачать
    Фильмы [HD 720p, 1080p] (Хороший звук DUB, MVO) [ 14.23 GB ] Заклятие 2 / The Conjuring 2 [2016 BDRip 1080p / ] Ворон Скачать
    Фильмы (Blu-ray, BD-Remux, HDDVD) [ 24.89 GB ] Заклятие 2 / The Conjuring 2 [2016 BDRemux 1080p от ExKinoRay] Russian Mafia Скачать
    Фильмы (Blu-ray, BD-Remux, HDDVD) [ 36.77 GB ] Заклятие 2 / The Conjuring 2 [2016 Blu-ray CEE 1080p] DUB bober100 Скачать
    Фильмы 2016 [DVDrip, WEB-DLRip, HDrip] (DUB, MVO) [ 2.18 GB ] Заклятие 2 / The Conjuring 2 [2016 BDRip] - [] Twi7ter Скачать
    Фильмы [HD 720p, 1080p] (Хороший звук DUB, MVO) [ 15.43 GB ] Заклятие / The Conjuring [2013 BDRip 1080p by msltel] DUB 2 x AVO VO msltel Скачать

    Рекламный пират

    30-10-2013 09:16 Заклятие Скачать торрент  

    Неужели стоящий просмотра фильм ужасов 2013 года, судя по оценке на кинопоиске.... Кто смотрел, как фильм?

    30-10-2013 09:55 Заклятие Скачать торрент  

    ну треш фильмы 3 месяца не тянут, чтобы лицуху сразу выложить. качаю

    30-10-2013 10:25 Заклятие Скачать торрент  

    FabRyoСоглашусь, стоит посмотреть)

    30-10-2013 13:00 Заклятие Скачать торрент  

    фильм супер смотрел в кинотеатре всем советую,давно такого качественного ужастика не видел=)

    03-11-2013 11:47 Заклятие Скачать торрент  

    [marq=up]Уфф.... сейчас посмотрим :hmmmкэп СПС!!!

    03-11-2013 13:49 Заклятие Скачать торрент  

    Отличный фильм ! жду Острал 2

    05-11-2013 21:22 Заклятие Скачать торрент  

    Жуть такая!!! Давно так не очковали с женой !!!Советую 5+!!

    05-11-2013 21:29 Заклятие Скачать торрент  

    bangadog писал(а):

    Жуть такая!!! Давно так не очковали с женой !!!Советую 5+!!

    Да и у меня мурашки по кожи бегали. Ночь я один. Смотрел в полной тишине в наушниках на полную мощность.

    Pекламный агент PB

    06-11-2013 23:45 Заклятие Скачать торрент  

    классный ужастик!

    08-11-2013 19:37 Заклятие Скачать торрент  

    Фильм на 10 из 10 !!!!!!!!! Страааашный !!!!!!

    24-11-2013 20:08 Заклятие Скачать торрент  

    Хорошо снято, фильм 8 из 10.

    26-11-2013 11:49 Заклятие Скачать торрент  

    Смотрел ночью, фильм действительно страшный. Потом уснуть не мог.

    27-11-2013 17:11 Заклятие Скачать торрент  

    посмотрим, спасибо за раздачу

    28-11-2013 10:03 Заклятие Скачать торрент  

    Не плохой фильм . Смотреть стоит . Спасибо .

    30-01-2014 13:50 Заклятие Скачать торрент  

    Фильм отличный. Всем советую!!!

    30-01-2014 15:33 Заклятие Скачать торрент  

    Смотрели в кинотеатре.офигенный фильмец...................

    Pекламный агент PB

    16-08-2016 03:10 Заклятие Скачать торрент  

    Отличный фильм в этом жанре! Хорошая постановка.

    Дорогой пользователь! Огромная просьба, поблагодарите релизера, оцените раздачу и оставьте свои комментарий, если Вы скачали Заклятие через торрент бесплатно! Внесите свою лепту в развитие PiratBit!

    Комментировать посты могут только пользователи прошедшие не сложную регистрацию

    Заклятие через торрент Скачать бесплатно Заклятие Заклятие скачать торрент Заклятие смотреть онлайн Cкачать фильм Заклятие бесплатно Заклятие скачать торрент в хорошем качестве Заклятие смотреть онлайн бесплатно в хорошем качестве

    Вы не можете начинать темыВы не можете отвечать на сообщенияВы не можете редактировать свои сообщенияВы не можете удалять свои сообщенияВы не можете голосовать в опросахВы не можете прикреплять файлы к сообщениямВы можете скачивать файлы

    piratbit.ru


    Смотрите также