Зачетный препод скачать бесплатно


Скачать фильм Зачётный препод (2013) через торрент

25 февраля 2016 13:11 Зачётный препод / Fack ju Ghte (2013) BDRip-AVC от New-Team | D | Лицензия .torrent   [Информация о файле (нажмите для просмотра)] Перевод: Профессиональный (полное дублирование)|Лицензия|Видео: 1024x434 (2.35:1), 24.000 fps, x264 ~1384 kbps avg, 0.130 bit/pixelАудио: 48 kHz, AC3 Dolby Digital, 3/2 (L,C,R,l,r) + LFE ch, ~384.00 kbps Constant |Дубляж| 1,45 Gb 1180 23 25 февраля 2016 13:11 Зачётный препод / Fack ju Ghte (2013) BDRip от New-Team | D | Лицензия .torrent   [Информация о файле (нажмите для просмотра)] Перевод: Профессиональный (полное дублирование)|Лицензия|Видео: 720x304 (2.35:1), 24.000 fps, XviD 65 ~1883 kbps avg, 0.359 bit/pixelАудио #1: 48 kHz, AC3 Dolby Digital, 3/2 (L,C,R,l,r) + LFE ch, ~384.00 kbps Constant |Дубляж|Аудио #2: 48 kHz, AC3 Dolby Digital, 3/2 (L,C,R,l,r) + LFE ch, ~384.00 kbps Constant |Оригинал| 2,18 Gb 109 8 25 февраля 2016 13:11 Зачётный препод / Fack ju Ghte (2013) BDRip от New-Team | D | Лицензия .torrent   [Информация о файле (нажмите для просмотра)] Перевод: Профессиональный (полное дублирование)|Лицензия|Видео: 656x272 (2.40:1), 24.000 fps, XviD 65 ~749 kbps avg, 0.175 bit/pixelАудио: 48 kHz, MPEG Layer 3, 2 ch, 128.00 kbps Constant |Дубляж| 742,48 Mb 100 11 25 февраля 2016 13:11 Зачётный препод / Fack ju Ghte (2013) BDRip от New-Team | D | Лицензия .torrent   [Информация о файле (нажмите для просмотра)] Перевод: Профессиональный (полное дублирование)|Лицензия|Видео: 720x304 (2.35:1), 24.000 fps, XviD 65 ~1376 kbps avg, 0.262 bit/pixelАудио: 48 kHz, AC3 Dolby Digital, 3/2 (L,C,R,l,r) + LFE ch, 384.00 kbps Constant |Дубляж| 1,45 Gb 235 19 25 февраля 2016 13:11 Зачётный препод / Fack ju Ghte (2013) BDRip 720p от Leonardo and Scarabey | Лицензия .torrent   [Информация о файле (нажмите для просмотра)] Перевод: Профессиональный (полное дублирование) ЛицензияФормат: MKVВидео кодек: MPEG-4 AVC Аудио кодек: AC3Видео: 1280x544 (2.35:1) at 24.000 fps, AVC at 4250 kbps avg, 0.254 bit/pixelАудио: 48 kHz; AC3 Dolby Digital; 3/2 (L,C,R,l,r) + LFE ch; 448 kbps avgСубтитры: Russian, German, English 3,92 Gb 167 14 25 февраля 2016 13:11 Зачётный препод / Fack ju Ghte (2013) HDRip-AVC | D .torrent   [Информация о файле (нажмите для просмотра)] Перевод: ДублированныйКодек: x264Качество: HDRip-AVC | [Исходник BDRip 1080p]Видео: 768x328 (2.35:1), 24.000 fps, x264 ~ 817 kbps, 0.135 bit/pixelАудио: 48 / 24 kHz, AAC-HE, (L,R) 2 ch, ~72.00 kbps avg 745,61 Mb 31 5 25 февраля 2016 13:11 Зачётный препод / Fack ju Ghte (2013) BDRip от ivandubskoj | D, A .torrent   [Информация о файле (нажмите для просмотра)] Перевод: Дублированный (Soul Pro), авторский одноголосый (М. Яроцкий), авторский одноголосый (В. Данилов)Качество: BDRip [Исходник: Blu-ray Remux (1080p)]Видео: XviD, 2051 Кбит/с, 720x304 (2.35:1), 24 кадр/сАудио #1: Русский, Dolby АС3, 48000 Гц, 448 Кбит/с, 6 каналов (5.1) - DUB, R5 [Soul Pro]Аудио #2: Русский, Dolby АС3, 48000 Гц, 448 Кбит/с, 6 каналов (5.1) - AVO [М. Яроцкий]Аудио #3: Русский, Dolby АС3, 48000 Гц, 448 Кбит/с, 6 каналов (5.1) - AVO [В. Данилов] 2,74 Gb 17 4 25 февраля 2016 13:11 Зачётный препод / Fack ju Ghte (2013) BDRip-AVC | D, A .torrent   [Информация о файле (нажмите для просмотра)] Перевод: 1. Дублированный (лицензия) 2. Авторский одноголосый [М.Яроцкий]Кодек: AVCКачество: BDRip-AVCВидео: AVC, 1016x432, 1763 kbps, 24 fps, 0,167 bit/pixЗвук: #1. AC3, 48 kHz, 448 kbps, 5.1 ch - Дублированный (лицензия) #2. AC3, 48 kHz, 448 kbps, 5.1 ch - Авторский одноголосый [М.Яроцкий]Субтитры: Русские [UTF-8]Видео: Идентификатор : 1 Формат : AVC Формат/Информация : Advanced Video Codec Профиль формата : [email protected] Параметр CABAC формата : Да Параметр ReFrames формата : 10 кадров Идентификатор кодека : V_MPEG4/ISO/AVC Продолжительность : 1 ч. 57 м. Битрейт : 1763 Кбит/сек Ширина : 1016 пикселей Высота : 432 пикселя Соотношение сторон : 2,35:1 Режим частоты кадров : Постоянный Частота кадров : 24,000 кадра/сек Цветовое пространство : YUV Субдискретизация насыщенности : 4:2:0 Битовая глубина : 8 бит Тип развёртки : Прогрессивная Бит/(Пиксели*Кадры) : 0.167 Размер потока : 1,40 Гбайт (64%) Библиотека кодирования : x264 core 144 r2525 40bb568 Настройки программы : cabac=1 / ref=10 / deblock=1:-3:-3 / analyse=0x3:0x133 / me=umh / subme=11 / psy=1 / psy_rd=1.05:0.10 / mixed_ref=1 / me_range=48 / chroma_me=1 / trellis=2 / 8x8dct=1 / cqm=0 / deadzone=21,11 / fast_pskip=0 / chroma_qp_offset=-3 / threads=12 / lookahead_threads=3 / sliced_threads=0 / nr=0 / decimate=1 / interlaced=0 / bluray_compat=0 / constrained_intra=0 / bframes=16 / b_pyramid=2 / b_adapt=2 / b_bias=0 / direct=3 / weightb=1 / open_gop=0 / weightp=2 / keyint=240 / keyint_min=24 / scenecut=40 / intra_refresh=0 / rc_lookahead=60 / rc=2pass / mbtree=1 / bitrate=1763 / ratetol=1.0 / qcomp=0.60 / qpmin=0 / qpmax=69 / qpstep=4 / cplxblur=20.0 / qblur=0.5 / vbv_maxrate=62500 / vbv_bufsize=78125 / nal_hrd=none / filler=0 / ip_ratio=1.40 / aq=1:1.00 Default : Да Forced : НетАудио #1: Идентификатор : 3 Формат : AC-3 Формат/Информация : Audio Coding 3 Расширение режима : CM (complete main) Параметр Endianness формата : Big Идентификатор кодека : A_AC3 Продолжительность : 1 ч. 57 м. Вид битрейта : Постоянный Битрейт : 448 Кбит/сек Каналы : 6 каналов Расположение каналов : Front: L C R, Side: L R, LFE Частота : 48,0 КГц Битовая глубина : 16 бит Метод сжатия : С потерями Размер потока : 375 Мбайт (17%) Язык : Russian Default : Да Forced : НетАудио #2: Идентификатор : 4 Формат : AC-3 Формат/Информация : Audio Coding 3 Расширение режима : CM (complete main) Параметр Endianness формата : Big Идентификатор кодека : A_AC3 Продолжительность : 1 ч. 57 м. Вид битрейта : Постоянный Битрейт : 448 Кбит/сек Каналы : 6 каналов Расположение каналов : Front: L C R, Side: L R, LFE Частота : 48,0 КГц Битовая глубина : 16 бит Метод сжатия : С потерями Размер потока : 375 Мбайт (17%) Язык : Russian Default : Нет Forced : Нет 2,18 Gb 14 2 25 февраля 2016 13:11 Зачётный препод / Fack ju Ghte (2013) BDRip 1080p | D, A .torrent   [Информация о файле (нажмите для просмотра)] Перевод: Перевод: Профессиональный (дублированный) Перевод 2: Авторский (одноголосый закадровый) - М.ЯроцкийКодек: x264Качество: BDRip 1080pВидео: MPEG-4 AVC, 18.4 Mбит/с, 1920x816, 24,000 fpsЗвук: Аудио: Rus, AC3, 448 kb/s (6 ch), 48 kHz Аудио 2: Rus, DTS, 1510 kb/s (6 ch), 48 kHz - М.Яроцкий Аудио 3: Ger, DTS, 1510 kb/s (6 ch), 48 kHzСубтитры: Ger, Eng 18,25 Gb 10 4 25 февраля 2016 13:11 Зачётный препод / Fack ju Ghte (2013) BDRip 720p | D, A .torrent   [Информация о файле (нажмите для просмотра)] Перевод: Перевод: Профессиональный (дублированный), Авторский (одноголосый закадровый) - М.ЯроцкийКодек: x264Качество: BDRip 720pВидео: MPEG-4 AVC, 6000 Кбит/с, 1280x544, 24,000 fpsЗвук: Аудио: Rus, AC3, 448 kb/s (6 ch), 48 kHz Аудио 2: Rus, DTS, 1510 kb/s (6 ch), 48 kHz - М.Яроцкий Аудио 3: Ger, DTS, 1510 kb/s (6 ch), 48 kHzСубтитры: Ger, Eng 7,9 Gb 6 3 25 февраля 2016 13:11 Зачётный препод / Fack ju Ghte (2013) HDRip | Лицензия .torrent   [Информация о файле (нажмите для просмотра)] Формат: AVI (XviD)Качество: HDRipВидео: 1728 kb/s, 720х304Аудио: Russian / German: AC3, 384 kb/s (6 ch) 2,05 Gb 56 4 25 февраля 2016 13:11 Зачётный препод / Fack ju Ghte (2013) HDRip | Лицензия .torrent   [Информация о файле (нажмите для просмотра)] Формат: AVI (XviD)Качество: HDRipВидео: 1396 kb/s, 720х304Аудио: AC3, 384 kb/s (6 ch) 1,46 Gb 551 17 25 февраля 2016 13:11 Зачётный препод / Fack ju Ghte (2013) HDRip от Scarabey | Чистый звук .torrent   [Информация о файле (нажмите для просмотра)] Перевод: Профессиональный (полное дублирование) Чистый звукВидео: 720x304 (2.37:1), 24 fps, XviD build 73 ~1377 kbps avg, 0.26 bit/pixelАудио: 48 kHz, AC3 Dolby Digital, 2/0 (L,R) ch, ~384.00 kbps avg 1,45 Gb 347 11 25 февраля 2016 13:11 Зачётный препод / Fack ju Ghte (2013) HDRip от Scarabey | Чистый звук .torrent   [Информация о файле (нажмите для просмотра)] Перевод: Профессиональный (полное дублирование) Чистый звукВидео: 688x288 (2.39:1), 24 fps, XviD build 73 ~751 kbps avg, 0.16 bit/pixelАудио: 48 kHz, MPEG Layer 3, 2 ch, ~128.00 kbps avg 745 Mb 16 1 25 февраля 2016 13:11 Зачётный препод / Fack ju Ghte (2013) BDRip 720p от NovaLan | Чистый звук, А .torrent   [Информация о файле (нажмите для просмотра)] Перевод: Дублированный, авторский, любительский одноголосыйКодек: MPEG-4 AVCКачество: BDRip 720pВидео: 4288 Кбит/с, 1280x544, 24 Кадр/сЗвук: Русский (AC3, 2 ch, 384 Кбит/с), (AC3, 6 ch, 640 Кбит/с), немецкий (AC3, 6 ch, 640 Кбит/с)Субтитры: Русские, английские, немецкиеВидео: Идентификатор : 1 Формат : AVC Формат/Информация : Advanced Video Codec Профиль формата : [email protected] Параметр CABAC формата : Да Параметр ReFrames формата : 9 кадров Идентификатор кодека : V_MPEG4/ISO/AVC Продолжительность : 1 ч. 57 м. Битрейт : 4288 Кбит/сек Ширина : 1280 пикселей Высота : 544 пикселя Соотношение сторон : 2,35:1 Режим частоты кадров : Постоянный Частота кадров : 24,000 кадра/сек Цветовое пространство : YUV Субдискретизация насыщенности : 4:2:0 Битовая глубина : 8 бит Тип развёртки : Прогрессивная Бит/(Пиксели*Кадры) : 0.257 Размер потока : 3,41 Гбайт (66%) Заголовок : Fack.ju.Gohte.2013.x264.BDRip.(720p).NovaLan Библиотека кодирования : x264 core 142 r2431 ac76440 Настройки программы : cabac=1 / ref=9 / deblock=1:-3:-3 / analyse=0x3:0x113 / me=umh / subme=11 / psy=1 / psy_rd=1.00:0.20 / mixed_ref=1 / me_range=48 / chroma_me=1 / trellis=2 / 8x8dct=1 / cqm=0 / deadzone=21,11 / fast_pskip=0 / chroma_qp_offset=-3 / threads=12 / lookahead_threads=4 / sliced_threads=0 / nr=0 / decimate=0 / interlaced=0 / bluray_compat=0 / constrained_intra=0 / bframes=8 / b_pyramid=2 / b_adapt=2 / b_bias=0 / direct=3 / weightb=1 / open_gop=0 / weightp=2 / keyint=240 / keyint_min=23 / scenecut=40 / intra_refresh=0 / rc=2pass / mbtree=0 / bitrate=4288 / ratetol=1.0 / qcomp=0.70 / qpmin=0 / qpmax=69 / qpstep=4 / cplxblur=20.0 / qblur=0.5 / ip_ratio=1.40 / pb_ratio=1.30 / aq=2:0.90 Язык : German Default : Да Forced : Нет DURATION : 01:57:08.881000000 NUMBER_OF_FRAMES : 168693 NUMBER_OF_BYTES : 3766856046 _STATISTICS_WRITING_APP : mkvmerge v7.3.0 ('Nouages') 64bit built on Oct 22 2014 18:53:34 _STATISTICS_WRITING_DATE_UTC : 2014-12-08 06:59:40 _STATISTICS_TAGS : BPS DURATION NUMBER_OF_FRAMES NUMBER_OF_BYTESАудио #1: Идентификатор : 2 Формат : AC-3 Формат/Информация : Audio Coding 3 Расширение режима : CM (complete main) Параметр Endianness формата : Big Идентификатор кодека : A_AC3 Продолжительность : 1 ч. 57 м. Вид битрейта : Постоянный Битрейт : 384 Кбит/сек Каналы : 2 канала Расположение каналов : Front: L R Частота : 48,0 КГц Битовая глубина : 16 бит Метод сжатия : С потерями Размер потока : 322 Мбайт (6%) Заголовок : Дублированный (Чистый звук) Язык : Russian Default : Да Forced : НетАудио #2: Идентификатор : 3 Формат : AC-3 Формат/Информация : Audio Coding 3 Расширение режима : CM (complete main) Параметр Endianness формата : Big Идентификатор кодека : A_AC3 Продолжительность : 1 ч. 57 м. Вид битрейта : Постоянный Битрейт : 640 Кбит/сек Каналы : 6 каналов Расположение каналов : Front: L C R, Side: L R, LFE Частота : 48,0 КГц Битовая глубина : 16 бит Метод сжатия : С потерями Размер потока : 536 Мбайт (10%) Заголовок : Авторский одноголосый (М. Яроцкий (kyberpunk)) Язык : Russian Default : Нет Forced : НетАудио #3: Идентификатор : 4 Формат : AC-3 Формат/Информация : Audio Coding 3 Расширение режима : CM (complete main) Параметр Endianness формата : Big Идентификатор кодека : A_AC3 Продолжительность : 1 ч. 57 м. Вид битрейта : Постоянный Битрейт : 384 Кбит/сек Каналы : 6 каналов Расположение каналов : Front: L C R, Side: L R, LFE Частота : 48,0 КГц Битовая глубина : 16 бит Метод сжатия : С потерями Размер потока : 322 Мбайт (6%) Заголовок : Любительский одноголосый В. Данилов (VirusProject) Язык : Russian Default : Нет Forced : НетАудио #4: Идентификатор : 5 Формат : AC-3 Формат/Информация : Audio Coding 3 Расширение режима : CM (complete main) Параметр Endianness формата : Big Идентификатор кодека : A_AC3 Продолжительность : 1 ч. 57 м. Вид битрейта : Постоянный Битрейт : 640 Кбит/сек Каналы : 6 каналов Расположение каналов : Front: L C R, Side: L R, LFE Частота : 48,0 КГц Битовая глубина : 16 бит Метод сжатия : С потерями Размер потока : 536 Мбайт (10%) Язык : German Default : Нет Forced : Нет 5,19 Gb 16 2 25 февраля 2016 13:11 Зачётный препод / Fack ju Ghte (2013) BDRip-AVC от NovaLan | Чистый звук, A .torrent   [Информация о файле (нажмите для просмотра)] Перевод: Дублированный, авторский, любительский одноголосыйКодек: MPEG-4 AVCКачество: BDRip-AVCВидео: 2719 Кбит/с, 1024x432, 24 Кадр/сЗвук: Русский (AC3, 2 ch, 384 Кбит/с), (AC3, 6 ch, 384 Кбит/с), немецкий (AC3, 6 ch, 384 Кбит/с)Субтитры: Русские, английские, немецкиеВидео: Идентификатор : 1 Формат : AVC Формат/Информация : Advanced Video Codec Профиль формата : [email protected] Параметр CABAC формата : Да Параметр ReFrames формата : 9 кадров Идентификатор кодека : V_MPEG4/ISO/AVC Продолжительность : 1 ч. 57 м. Битрейт : 2719 Кбит/сек Ширина : 1024 пикселя Высота : 432 пикселя Соотношение сторон : 2,40:1 Режим частоты кадров : Постоянный Частота кадров : 24,000 кадра/сек Цветовое пространство : YUV Субдискретизация насыщенности : 4:2:0 Битовая глубина : 8 бит Тип развёртки : Прогрессивная Бит/(Пиксели*Кадры) : 0.256 Размер потока : 2,16 Гбайт (62%) Заголовок : Fack.ju.Gohte.2013.x264.BDRip.(AVC).by.StarbirS Библиотека кодирования : x264 core 142 r2431 ac76440 Настройки программы : cabac=1 / ref=9 / deblock=1:-3:-3 / analyse=0x3:0x113 / me=umh / subme=11 / psy=1 / psy_rd=1.00:0.20 / mixed_ref=1 / me_range=48 / chroma_me=1 / trellis=2 / 8x8dct=1 / cqm=0 / deadzone=21,11 / fast_pskip=0 / chroma_qp_offset=-3 / threads=12 / lookahead_threads=4 / sliced_threads=0 / nr=0 / decimate=0 / interlaced=0 / bluray_compat=0 / constrained_intra=0 / bframes=8 / b_pyramid=2 / b_adapt=2 / b_bias=0 / direct=3 / weightb=1 / open_gop=0 / weightp=2 / keyint=240 / keyint_min=23 / scenecut=40 / intra_refresh=0 / rc=2pass / mbtree=0 / bitrate=2719 / ratetol=1.0 / qcomp=0.70 / qpmin=0 / qpmax=69 / qpstep=4 / cplxblur=20.0 / qblur=0.5 / ip_ratio=1.40 / pb_ratio=1.30 / aq=2:0.90 Язык : English Default : Да Forced : Нет DURATION : 01:57:08.881000000 NUMBER_OF_FRAMES : 168693 NUMBER_OF_BYTES : 2388600112 _STATISTICS_WRITING_APP : mkvmerge v7.3.0 ('Nouages') 64bit built on Oct 22 2014 18:53:34 _STATISTICS_WRITING_DATE_UTC : 2014-12-08 05:57:16 _STATISTICS_TAGS : BPS DURATION NUMBER_OF_FRAMES NUMBER_OF_BYTESАудио #1: Идентификатор : 2 Формат : AC-3 Формат/Информация : Audio Coding 3 Расширение режима : CM (complete main) Параметр Endianness формата : Big Идентификатор кодека : A_AC3 Продолжительность : 1 ч. 57 м. Вид битрейта : Постоянный Битрейт : 384 Кбит/сек Каналы : 2 канала Расположение каналов : Front: L R Частота : 48,0 КГц Битовая глубина : 16 бит Метод сжатия : С потерями Размер потока : 322 Мбайт (9%) Заголовок : Дублированный (Чистый звук) Язык : Russian Default : Да Forced : НетАудио #2: Идентификатор : 3 Формат : AC-3 Формат/Информация : Audio Coding 3 Расширение режима : CM (complete main) Параметр Endianness формата : Big Идентификатор кодека : A_AC3 Продолжительность : 1 ч. 57 м. Вид битрейта : Постоянный Битрейт : 384 Кбит/сек Каналы : 6 каналов Расположение каналов : Front: L C R, Side: L R, LFE Частота : 48,0 КГц Битовая глубина : 16 бит Метод сжатия : С потерями Размер потока : 322 Мбайт (9%) Заголовок : Авторский одноголосый (М. Яроцкий (kyberpunk)) Язык : Russian Default : Нет Forced : НетАудио #3: Идентификатор : 4 Формат : AC-3 Формат/Информация : Audio Coding 3 Расширение режима : CM (complete main) Параметр Endianness формата : Big Идентификатор кодека : A_AC3 Продолжительность : 1 ч. 57 м. Вид битрейта : Постоянный Битрейт : 384 Кбит/сек Каналы : 6 каналов Расположение каналов : Front: L C R, Side: L R, LFE Частота : 48,0 КГц Битовая глубина : 16 бит Метод сжатия : С потерями Размер потока : 322 Мбайт (9%) Заголовок : Любительский одноголосый В. Данилов (VirusProject) Язык : Russian Default : Нет Forced : НетАудио #4: Идентификатор : 5 Формат : AC-3 Формат/Информация : Audio Coding 3 Расширение режима : CM (complete main) Параметр Endianness формата : Big Идентификатор кодека : A_AC3 Продолжительность : 1 ч. 57 м. Вид битрейта : Постоянный Битрейт : 384 Кбит/сек Каналы : 6 каналов Расположение каналов : Front: L C R, Side: L R, LFE Частота : 48,0 КГц Битовая глубина : 16 бит Метод сжатия : С потерями Размер потока : 322 Мбайт (9%) Язык : German Default : Нет Forced : Нет 3,48 Gb 15 5 25 февраля 2016 13:11 Зачётный препод / Fack ju Ghte (2013) BDRip 1080p | Чистый звук, A .torrent   [Информация о файле (нажмите для просмотра)] Перевод: Дубляж - [Чистый звук]+Одноголосыйх2Кодек: AVCКачество: BDRip 1080pВидео: 1920x816 (2.35:1), 10329 kbps, 24 fps, 0,275 bppАудио №1: русский / AC3 / 2.0 / 48 kHz / 384 kbps / 16 bit || Дубляж-Чистый звукАудио №2: русский / AC3 / 5.1 / 48 kHz / 384 kbps / 16 bit || VO В. Данилов (VirusProject)Аудио №3: русский / AC3 / 5.1 / 48 kHz / 448 kbps / 16 bit || VO М. Яроцкий | присутствует ненормативная лексикаСубтитры: нет 9,64 Gb 34 1 25 февраля 2016 13:11 Зачётный препод / Fack ju Ghte (2013) BDRip-AVC | A .torrent   [Информация о файле (нажмите для просмотра)] Перевод: Авторский одноголосый закадровый В. Данилов (VirusProject)Качество: BDRip-AVCФормат: MKVВидео: 1072x456 at 24.000 fps, [email protected], ~2313 kbps 2,17 Gb 16 4 25 февраля 2016 13:11 Зачётный препод / Fack ju Ghte (2013) BDRip 1080p | 2xA .torrent   [Информация о файле (нажмите для просмотра)] Перевод: Авторский одноголосый закадровый В. Данилов (VirusProject) | М. ЯроцкийКачество: BDRip-1080pФормат: MKVВидео: 1920x816 at 24.000 fps, MPEG-4 AVC, ~10300 kbps 9,32 Gb 16 4 25 февраля 2016 13:11 Зачётный препод / Fack ju Ghte (2013) BDRip-AVC от Leo.pard and Scarabey | A .torrent   [Информация о файле (нажмите для просмотра)] Перевод: Авторский (одноголосый закадровый) В. Данилов (VirusProject)Формат: MKVВидео: x264, 736x312 (2.35:1), 1419 Kbps, 24 fpsАудио: AC3, 384 Kbps, 48 KHz, 6 channels 1,48 Gb 46 6 25 февраля 2016 13:11 Зачётный препод / Fack ju Ghte (2013) HDRip-AVC от АРХАНГЕЛ | L1, A .torrent   [Информация о файле (нажмите для просмотра)] Перевод: Любительский (одноголосый закадровый) -В. Данилов (VirusProject), Авторский (одноголосый закадровый) – М. Яроцкий (Ненормативная лексика)Кодек: h.264 (MKV)Качество: HDRip-AVCВидео: AVC, 1024 x 432, ~2 009 KbpsЗвук: Russian [В. Данилов (VirusProject)]: AC-3, 6 ch, 384 Kbps / Russian [М. Яроцкий], German: AC-3, 6 ch, 512 Kbps / German [Commentary #1, #2, #3]: AC-3, 2 ch, 192 KbpsСубтитры: Russian, English, German 3,33 Gb 10 2 25 февраля 2016 13:11 Зачётный препод / Fack ju Ghte (2013) BDRemux 1080p от HDCLUB и New-Team | 2xA .torrent   [Информация о файле (нажмите для просмотра)] Перевод: Авторский одноголосый закадровый В. Данилов (VirusProject) | М. ЯроцкийКачество: BDRemux 1080p /HDCLUBФормат: MKVВидео: 1920x1080 at 24.000 fps, MPEG-4 AVC, ~24869 kbps avg, Бит/(Пиксели*Кадры) : 0.514Аудио 3: German: 48 kHz/16-bit, DTS-HD HR 5.1, ~2046.00 kbps avgВидео: Идентификатор : 1 Формат : AVC Формат/Информация : Advanced Video Codec Профиль формата : [email protected] Параметр CABAC формата : Да Параметр ReFrames формата : 4 кадра Идентификатор кодека : V_MPEG4/ISO/AVC Продолжительность : 1 ч. 57 м. Вид битрейта : Переменный Битрейт : 25,6 Мбит/сек Максимальный битрейт : 35,0 Мбит/сек Ширина : 1920 пикселей Высота : 1080 пикселей Соотношение сторон : 16:9 Режим частоты кадров : Постоянный Частота кадров : 24,000 кадра/сек Стандарт вещания : NTSC Цветовое пространство : YUV Субдискретизация насыщенности : 4:2:0 Битовая глубина : 8 бит Тип развёртки : Прогрессивная Бит/(Пиксели*Кадры) : 0.514 Размер потока : 20,9 Гбайт (83%) Default : Да Forced : Нет Основные цвета : BT.709 Характеристики трансфера : BT.709 Коэффициенты матрицы : BT.709Аудио #1: Идентификатор : 2 Формат : AC-3 Формат/Информация : Audio Coding 3 Расширение режима : CM (complete main) Параметр Endianness формата : Big Идентификатор кодека : A_AC3 Продолжительность : 1 ч. 57 м. Вид битрейта : Постоянный Битрейт : 384 Кбит/сек Каналы : 6 каналов Расположение каналов : Front: L C R, Side: L R, LFE Частота : 48,0 КГц Битовая глубина : 16 бит Метод сжатия : С потерями Размер потока : 322 Мбайт (1%) Язык : Russian Default : Да Forced : НетАудио #2: Идентификатор : 3 Формат : DTS Формат/Информация : Digital Theater Systems Режим : 16 Параметр Endianness формата : Big Идентификатор кодека : A_DTS Продолжительность : 1 ч. 57 м. Вид битрейта : Постоянный Битрейт : 1509 Кбит/сек Каналы : 6 каналов Расположение каналов : Front: L C R, Side: L R, LFE Частота : 48,0 КГц Битовая глубина : 24 бит Метод сжатия : С потерями Размер потока : 1,23 Гбайт (5%) Язык : Russian Default : Нет Forced : НетАудио #3: Идентификатор : 4 Формат : DTS Формат/Информация : Digital Theater Systems Профиль формата : HRA / Core Режим : 16 Параметр Endianness формата : Big Идентификатор кодека : A_DTS Продолжительность : 1 ч. 57 м. Вид битрейта : Постоянный Битрейт : 2046 Кбит/сек / 1509 Кбит/сек Каналы : 6 каналов Расположение каналов : Front: L C R, Side: L R, LFE Частота : 48,0 КГц Битовая глубина : 24 бит Метод сжатия : С потерями Размер потока : 1,67 Гбайт (7%) Язык : German Default : Нет Forced : НетАудио #4: Идентификатор : 5 Формат : AC-3 Формат/Информация : Audio Coding 3 Расширение режима : CM (complete main) Параметр Endianness формата : Big Идентификатор кодека : A_AC3 Продолжительность : 1 ч. 57 м. Вид битрейта : Постоянный Битрейт : 192 Кбит/сек Каналы : 2 канала Расположение каналов : Front: L R Частота : 48,0 КГц Битовая глубина : 16 бит Метод сжатия : С потерями Размер потока : 161 Мбайт (1%) Язык : German Default : Нет Forced : НетАудио #5: Идентификатор : 6 Формат : AC-3 Формат/Информация : Audio Coding 3 Расширение режима : CM (complete main) Параметр Endianness формата : Big Идентификатор кодека : A_AC3 Продолжительность : 1 ч. 57 м. Вид битрейта : Постоянный Битрейт : 192 Кбит/сек Каналы : 2 канала Расположение каналов : Front: L R Частота : 48,0 КГц Битовая глубина : 16 бит Метод сжатия : С потерями Размер потока : 161 Мбайт (1%) Язык : German Default : Нет Forced : НетАудио #6: Идентификатор : 7 Формат : AC-3 Формат/Информация : Audio Coding 3 Расширение режима : CM (complete main) Параметр Endianness формата : Big Идентификатор кодека : A_AC3 Продолжительность : 1 ч. 57 м. Вид битрейта : Постоянный Битрейт : 192 Кбит/сек Каналы : 2 канала Расположение каналов : Front: L R Частота : 48,0 КГц Битовая глубина : 16 бит Метод сжатия : С потерями Размер потока : 161 Мбайт (1%) Язык : German Default : Нет Forced : Нет 25,14 Gb 7 6 25 февраля 2016 13:11 Зачётный препод / Fack ju Ghte (2013) BDRip 720p | A, L1 .torrent   [Информация о файле (нажмите для просмотра)] Перевод: Авторский [М. Яроцкий] + Любительский (одноголосый) [В. Данилов ] + оригинальная дорожкаФормат: MKVКачество: BDRip 720pВидео: MPEG4 AVC, 1280x544 (2.35:1), 24 fps, ~6008 kbps avg, 0.36 bit/pixelСубтитры: aнглийские, немецкие 7,86 Gb 32 5 25 февраля 2016 13:10 Зачётный препод / Fack ju Ghte (2013) HDRip | A, L1 .torrent   [Информация о файле (нажмите для просмотра)] Перевод: Авторский [М.Яроцкий] + Любительский (одноголосый) [В. Данилов] + оригинальная дорожкаФормат: AVIКачество: HDRipВидео: 704x300 (2.35:1), 24 fps, XviD build 64 ~1343 kbps avg, 0.27 bit/pixelЗвук: Russian / German: 48 kHz, AC3 Dolby Digital, 3/2 (L,C,R,l,r) + LFE ch, ~384.00 kbps avg 2,05 Gb 52 4 25 февраля 2016 13:10 Зачётный препод / Fack ju Ghte (2013) HDRip | L1 .torrent   [Информация о файле (нажмите для просмотра)] Формат: AVI (XviD)Качество: HDRipВидео: 1396 kb/s, 720х304Аудио: AC3, 384 kb/s (6 ch) 1,46 Gb 76 3

gig-torrent.net

Скачать фильм Зачётный препод 2 (2015) через торрент

29 ноября 2016 12:16 Зачётный препод 2 / Fack ju Ghte 2 (2015) HDRip от Scarabey | iTunes .torrent   [Информация о файле (нажмите для просмотра)] Перевод: Профессиональный (полное дублирование) [iTunes]Субтитры: нетВидео: 720x304 (2.37:1), 24 fps, XviD build 50 ~768 kbps avg, 0.15 bit/pixelАудио: 48 kHz, MPEG Layer 3, 2 ch, ~128.00 kbps avg 747,88 Mb 13 2 29 ноября 2016 12:16 Зачётный препод 2 / Fack ju Ghte 2 (2015) BDRip 720p от New-Team | iTunes .torrent   [Информация о файле (нажмите для просмотра)] Перевод: Профессиональный (дублированный) iTunesКонтейнер: MKVВидео: MPEG-4 AVC, 5437 Кбит/с, 1280x534, 24,000 fpsАудио: Rus, AC3, 384 kb/s (6 ch), 48 kHzАудио 2: Ger, DTS, 1510 kb/s (6 ch), 48 kHz 6,03 Gb 4 3 29 ноября 2016 12:16 Зачётный препод 2 / Fack ju Ghte 2 (2015) HDRip | КПК | iTunes .torrent   [Информация о файле (нажмите для просмотра)] Перевод: Профессиональный (дублированный) [iTunes]Качество: HDRip (Исходник BDRip 720p)Формат: MP4 521,49 Mb 22 3 29 ноября 2016 12:16 Зачётный препод 2 / Fack ju Ghte 2 (2015) HDRip от MegaPeer | iTunes .torrent   [Информация о файле (нажмите для просмотра)] Перевод: Дублированный |iTunesФормат: AVIКачество: HDRipВидео: XviD, 656x272, 24 fps, 770 kbpsЗвук: MP3, 2 ch, 128 kbpsСубтитры: Нет 745,9 Mb 14 8 29 ноября 2016 12:16 Зачётный препод 2 / Fack ju Ghte 2 (2015) BDRip 1080p | iTunes .torrent   [Информация о файле (нажмите для просмотра)] Перевод: Дублированный[iTunes]Видео: MPEG-4 AVC, 6734 kb/s, 1920x804Аудио: Русский (AC3, 6 ch, 384 Кбит/с), немецкий (DTS, 6 ch, 1510 Кбит/с) 6,96 Gb 25 3 29 ноября 2016 12:16 Зачётный препод 2 / Fack ju Ghte 2 (2015) BDRip 720p | iTunes .torrent   [Информация о файле (нажмите для просмотра)] Перевод: Дублированный[iTunes]Видео: MPEG-4 AVC, 3047 kb/s, 1280x536Аудио: Русский (AC3, 6 ch, 384 Кбит/с), немецкий (DTS, 6 ch, 1510 Кбит/с) 4,06 Gb 14 3 29 ноября 2016 12:16 Зачётный препод 2 / Fack ju Ghte 2 (2015) HDRip | iTunes .torrent   [Информация о файле (нажмите для просмотра)] Перевод: Дублированный[iTunes]Видео: XviD, 1954 kb/s, 720x304Аудио: Русский, немецкий (AC3, 6 ch, 384 Кбит/с) 2,05 Gb 40 6 29 ноября 2016 12:16 Зачётный препод 2 / Fack ju Ghte 2 (2015) HDRip | iTunes .torrent   [Информация о файле (нажмите для просмотра)] Перевод: Дублированный[iTunes]Видео: XviD, 1303 Кбит/с, 720x304Аудио: AC3, 6 ch, 384 Кбит/с 1,37 Gb 152 4 29 ноября 2016 12:16 Зачётный препод 2 / Fack ju Ghte 2 (2015) HDRip от Scarabey | iTunes .torrent   [Информация о файле (нажмите для просмотра)] Перевод: Профессиональный (полное дублирование) [iTunes]Субтитры: нетВидео: 720x304 (2.37:1), 24 fps, XviD build 50 ~1401 kbps avg, 0.27 bit/pixelАудио: 48 kHz, AC3 Dolby Digital, 3/2 (L,C,R,l,r) + LFE ch, ~384 kbps 1,45 Gb 216 6

gig-torrent.net

Скачать фильм Зачётный препод 2 через торрент в хорошем качестве бесплатно BDRip

Размер: 2.05 GB | Добавлен: 1 год 8 мес. назад | Торрент скачан:705 раз
Реклама Дарим 3000 рублей за регистрацию, не упусти свой шанс получить шикарный бонус!!!

26-02-2016 18:15 Зачётный препод 2 Скачать торрент  

Зачётный препод 2 / Fack ju Gohte 2 Год выхода: 2015Жанр: комедияВыпущено: Германия, Constantin Film International, Constantin Film Produktion GmbH, Red Balloon FilmsПродолжительность: 01:55:24Перевод: Дублированный [LINE]Примечание: Релиз без рекламы!

Режисер: Бора Дагтекин

В ролях: Элиас ЭмБарек, Йелла Хаазе, Каролина Херфурт, Катя Риман, Макс фон Гробен, Гизем Эмре, Арам Арами, Анна-Лена Кленке, Лукас Райбер

Описание: Бывший грабитель, а ныне крутой препод в школе Гёте, Зеки Мюллер, обрел популярность среди учеников благодаря нетрадиционным методам преподавания. Не успел он заскучать, заполняя классные журналы и проверяя тетради, как его вовлекли в «войну школ»: для того, чтобы получить статус престижного учебного заведения, необходимо съездить с коррекционным классом старшеклассников в Таиланд, чтобы установить дружеские отношения с местной школой.Вы, наверное, догадались, кому «повезло» стать сопровождающим! Пару Зеки составит очаровательная коллега Лиси. Кто кому задаст жару в этой по-настоящему «горячей» поездке, полной соблазнов — большой вопрос…

СЭМПЛ

Качество: BDRipФормат: AVIВидео: XviD, 1954 Кбит/с, 720x304, 23,976 fpsАудио: 48.0 KHz, AC3, 192 kb/s (2 ch) [DUB]Аудио: 48.0 KHz, AC3, 384 kb/s (6 ch) [GER]

Цитата:

TMDРелиз группы : Actors in the Life of CinemaРип от vcaireac[Чистый звук] официальное

Скачать Зачётный препод 2 через торрент http://s019.radikal.ru/i634/1602/4a/68bbd9056bf2.jpg Скачать фильм Зачётный препод 2 через торрент бесплантно в хорошем качестве Описание: Бывший грабитель, а ныне крутой препод в школе Гёте, Зеки Мюллер, обрел популярность среди учеников благодаря нетрадиционным ... 2016-02-26 18:15 8.8 10 17

Loading...

Loading...

Последний раз редактировалось: killermax2013 (2016-02-26 18:17), всего редактировалось 1 раз

Рекламный пират

26-02-2016 18:17 Зачётный препод 2 Скачать торрент  

Цитата:

Релиз без рекламы джойказлино

26-02-2016 20:09 Зачётный препод 2 Скачать торрент  

Супер! Спасибо!!

27-02-2016 22:39 Зачётный препод 2 Скачать торрент  

Уровень Американской тупости зашкаливает.

27-02-2016 22:55 Зачётный препод 2 Скачать торрент  

dimos882 писал(а):

Уровень Американской тупости зашкаливает.

Это немецкий фильм

28-02-2016 06:01 Зачётный препод 2 Скачать торрент  

ramos522 писал(а):

Это немецкий фильм и по сравнению с тупостью американских "комедий" то это шедевр P.S. Первая часть реально намного лучше

Дорогой пользователь! Огромная просьба, поблагодарите релизера, оцените раздачу и оставьте свои комментарий, если Вы скачали Зачётный препод 2 через торрент бесплатно! Внесите свою лепту в развитие PiratBit!

Комментировать посты могут только пользователи прошедшие не сложную регистрацию

Зачётный препод 2 через торрент Скачать бесплатно Зачётный препод 2 Зачётный препод 2 скачать торрент Зачётный препод 2 смотреть онлайн Cкачать фильм Зачётный препод 2 бесплатно Зачётный препод 2 скачать торрент в хорошем качестве Зачётный препод 2 смотреть онлайн бесплатно в хорошем качестве

Вы не можете начинать темыВы не можете отвечать на сообщенияВы не можете редактировать свои сообщенияВы не можете удалять свои сообщенияВы не можете голосовать в опросахВы не можете прикреплять файлы к сообщениямВы можете скачивать файлы

piratbit.ru

зачетный препод MP3 скачать бесплатно, музыка зачетный препод

  • 02:48

    Nitro — Ain t No Fun (ost Fack ju Gohte- Зачетный препод 2014)

  • 03:17

    Gina Cutillo — Love Sex Baby (OST "Зачетный препод" 53 минута)

  • 03:11

    Lena — Wild And Free ( OST Зачетный препод 2)

  • 02:31

    Djorkaeff & Beatzarre Feat. Nico Santos — It's Gonna Be Alright

  • 03:32

    AMPHIBIOUS ZOO — Going Out With A Bang

  • 03:51

    Passenger — Let Her Go (OST Зачетный препод)

  • 03:50

    Smashproof feat. Gin Wigmore — Brother (OST "Зачетный препод")

  • 03:35

    Walk Off The Earth — Rule the World ( OST Зачетный препод 2)

  • 02:14

    OST Зачетный препод — Move Your Body

  • 00:32

    (Рингтон) OST Зачетный Препод 2 — Wild And Free - Ringon.ru

  • 02:39

    Get Low — move side to side OST зачетный препод

  • 03:25

    Walk Off the Earth — Rule the World (OST ''Зачетный Препод'')

  • 00:41

    (Рингтон) OST Зачетный Препод 2 — Rule the World - Solovey.su

  • 02:52

    Ain't No Fun — Nitro (OST Зачетный препод)

  • 04:17

    One Republic — Counting Stars

  • 03:35

    Walk off the Earth — Rule the World

  • 03:19

    (OST Зачетный препод 2 2016) — Raphael Lake - Turn it up

  • 03:30

    Busted — That's what I go to school for (ost Зачетный препод)

  • 03:40

    . — Flipsyde - Laserbeam (OST Зачетный Препод 2)

  • 03:12

    Amanda Jenssen — Dry My Soul (OST "Зачетный препод")

  • 03:27

    Parachute — Can't help (OST "Зачетный препод")

  • 01:02

    Djorkaeff — Fack Ju Gohte Beat (OST ''Зачетный Препод 2'')

  • 01:18

    KA4KA.RU — Djorkaeff - Klassenzimmer Beat

  • 00:56

    OvercoveR — ЗАЧЕТНЫЙ ПРЕПОД! (Remix)

  • 00:38

    зачетный — препод

  • 02:46

    Aaron Wheeler, Ben Wheeler and Nigel Thompson — Honeys in the Place

  • 03:40

    Flipsyd — Laserbeam (OST ''Зачетный Препод 2'')

  • 02:05

    Beckmann — Das Ist Pimkie!( зачетный препод)

  • 02:39

    move side to side OST — Get Low

  • 03:21

    Clea & Kim — Balkan Bachata -/OST-Зачетный препод/

  • 04:17

    One Republic — Counting Stars (OST ''Зачетный Препод 2'')

  • 03:13

    Carly Ray Jepsen — Call me maybe (из "Зачетный препод 2")

  • 01:36

    Трэк Зачетный препод — Когда нашел деньги

  • 02:36

    Nitro — Wilding Out (OST Зачетный препод 2)

  • 03:12

    Lena — Wild & Free (OST Зачетный препод 2)

  • 02:47

    Aaron Wheeler — Honeys in The Places

  • 03:14

    Mike Reed — Sun Shine On Me (Зачетный препод)

  • 03:54

    Madeline Juno — Error (OST Fack ju Göhte / Зачетный препод)

  • 02:46

    KA4KA.RU — Aaron Wheeler, Ben Wheeler and Nigel Thompson - Honeys in the Place (OST Зачетный препод)

  • 03:41

    Flipsyde — Laserbeam (песня из фильма Зачётный препод 2 / Fack ju Göhte 2)

  • 02:42

    Janieck Devy — Don't Give Up on Us (саундтрек из фильма Зачётный препод 2 / Fack ju Göhte 2)

  • 03:14

    Lena — Wild and Free (саундтрек из фильма Зачётный препод 2 / Fack ju Göhte 2)

  • 03:24

    LunchMoney Lewis — Bills (Clean) (мелодия из фильма Зачётный препод 2 / Fack ju Göhte 2)

  • 03:25

    Walk Off The Earth — Rule The World (OST Зачётный препод 2 / Fack ju Göhte 2)

  • 01:07

    Djorkaeff & Beatzarre — Fack Ju Göhte 2 Beat (из фильма Зачётный препод 2 / Fack ju Göhte 2)

  • 03:11

    Sigma Feat Paloma Faith — Changing (Original Radio Edit) (ОСТ Зачётный препод 2 / Fack ju Göhte 2)

  • 01:07

    Djorkaeff & Beatzarre — Diamanten Beat (из фильма Зачётный препод 2 / Fack ju Göhte 2)

  • 03:09

    Nitro — Get It Up (мелодия из фильма Зачётный препод 2 / Fack ju Göhte 2)

  • 00:55

    Djorkaeff & Beatzarre feat. B-Case — Sicherheitskontrolle Beat (музыка из фильма Зачётный препод 2 / Fack ju Göhte 2)

  • 01:07

    Djorkaeff & Beatzarre — Kannst Du Mich Verstehen Beat (из фильма Зачётный препод 2 / Fack ju Göhte 2)

  • 02:58

    Jason Derulo feat. 2 Chainz — Talk Dirty (саундтрек из фильма Зачётный препод 2 / Fack ju Göhte 2)

  • 01:25

    Djorkaeff & Beatzarre — Pausenhof Beat (музыка из фильма Зачётный препод 2 / Fack ju Göhte 2)

  • 04:17

    OneRepublic — Counting Stars (ОСТ из Зачётный препод 2 / Fack ju Göhte 2)

  • 01:42

    Djorkaeff & Beatzarre — Uschi Auf Lsd Beat (музыка из фильма Зачётный препод 2 / Fack ju Göhte 2)

  • 02:36

    Nitro — Wilding Out (мелодия из фильма Зачётный препод 2 / Fack ju Göhte 2)

  • 01:46

    Djorkaeff & Beatzarre — Mcdive Beat (из фильма Зачётный препод 2 / Fack ju Göhte 2)

  • 03:52

    Charli XCX — Famous (из фильма Зачётный препод 2 / Fack ju Göhte 2)

  • 01:19

    Djorkaeff — Klassenzimmer Beat (мелодия из фильма ''Зачётный препод | Иди к черту, Гёте'' / ''Fack ju Göhte | Fuck you, Goethe'' 2013)

  • 00:56

    Djorkaeff — Theater Beat (мелодия из фильма ''Зачётный препод | Иди к черту, Гёте'' / ''Fack ju Göhte | Fuck you, Goethe'' 2013)

  • 00:59

    Djorkaeff — Benzin Beat (песня из фильма ''Зачётный препод | Иди к черту, Гёте'' / ''Fack ju Göhte | Fuck you, Goethe'' 2013)

  • 03:24

    Parachute — Can't Help (ОСТ ''Зачётный препод | Иди к черту, Гёте'' / ''Fack ju Göhte | Fuck you, Goethe'' 2013)

  • 03:30

    NoNoNo — Pumpin Blood (ОСТ ''Зачётный препод | Иди к черту, Гёте'' / ''Fack ju Göhte | Fuck you, Goethe'' 2013)

  • 01:45

    Beckmann — Zeitkapsel (музыка из фильма ''Зачётный препод | Иди к черту, Гёте'' / ''Fack ju Göhte | Fuck you, Goethe'' 2013)

  • 02:31

    Djorkaeff & Beatzarre Feat. Nico Santos — It's Gonna Be Alright (песня из фильма Зачётный препод 2 / Fack ju Göhte 2)

  • 03:17

    Djorkaeff & Beatzarre Feat. Nico Santos — Here Comes The Sun (песня из фильма Зачётный препод 2 / Fack ju Göhte 2)

  • 03:14

    Olly Murs feat. Travie McCoy — Wrapped Up (Westfunk Radio Mix) (ОСТ из фильма Зачётный препод 2 / Fack ju Göhte 2)

  • 02:06

    Beckmann — Das Ist Pimkie! (из фильма ''Зачётный препод | Иди к черту, Гёте'' / ''Fack ju Göhte | Fuck you, Goethe'' 2013)

  • 02:02

    Beckmann — Laura, Sie Redet Mit Dir! (музыка из фильма ''Зачётный препод | Иди к черту, Гёте'' / ''Fack ju Göhte | Fuck you, Goethe'' 2013)

  • 07:57

    John Newman — Cheating (Freemasons Club Edit) (саундтрек из фильма ''Зачётный препод | Иди к черту, Гёте'' / ''Fack ju Göhte | Fuck you, Goethe'' 2013)

  • 03:54

    Madeline Juno — Error (саундтрек из фильма ''Зачётный препод | Иди к черту, Гёте'' / ''Fack ju Göhte | Fuck you, Goethe'' 2013)

  • 03:30

    Busted — What I Go To School For (музыка из фильма ''Зачётный препод | Иди к черту, Гёте'' / ''Fack ju Göhte | Fuck you, Goethe'' 2013)

  • 02:52

    Nitro — Ain't No Fun (ОСТ из фильма ''Зачётный препод | Иди к черту, Гёте'' / ''Fack ju Göhte | Fuck you, Goethe'' 2013)

  • 03:17

    Clea & Kim — Balkan Bachata (песня из фильма ''Зачётный препод | Иди к черту, Гёте'' / ''Fack ju Göhte | Fuck you, Goethe'' 2013)

  • 02:15

    D-R Period — Move You're Body (саундтрек из фильма ''Зачётный препод | Иди к черту, Гёте'' / ''Fack ju Göhte | Fuck you, Goethe'' 2013)

  • 04:13

    Passenger — Let Her Go (OST ''Зачётный препод | Иди к черту, Гёте'' / ''Fack ju Göhte | Fuck you, Goethe'' 2013)

  • 01:43

    Djorkaeff — Hands Around the World (мелодия из фильма ''Зачётный препод | Иди к черту, Гёте'' / ''Fack ju Göhte | Fuck you, Goethe'' 2013)

  • 03:42

    John Newman — Cheating (саундтрек из фильма ''Зачётный препод | Иди к черту, Гёте'' / ''Fack ju Göhte | Fuck you, Goethe'' 2013)

  • 03:51

    Smashproof feat. Gin Wigmore — Brother (OST ''Зачётный препод | Иди к черту, Гёте'' / ''Fack ju Göhte | Fuck you, Goethe'' 2013)

  • 01:25

    Thilo Brandt — Deep Diving (OST из фильма ''Зачётный препод | Иди к черту, Гёте'' / ''Fack ju Göhte | Fuck you, Goethe'' 2013)

  • 02:57

    Neon Trees — Everybody Talks (ОСТ из фильма ''Зачётный препод | Иди к черту, Гёте'' / ''Fack ju Göhte | Fuck you, Goethe'' 2013)

  • 03:45

    Olly Murs — Change Is Gonna Come (ОСТ ''Зачётный препод | Иди к черту, Гёте'' / ''Fack ju Göhte | Fuck you, Goethe'' 2013)

  • 01:03

    Djorkaeff — Fack Ju Gцhte Beat (песня из фильма ''Зачётный препод | Иди к черту, Гёте'' / ''Fack ju Göhte | Fuck you, Goethe'' 2013)

  • 03:51

    Kodaline — High Hopes (саундтрек из фильма ''Зачётный препод | Иди к черту, Гёте'' / ''Fack ju Göhte | Fuck you, Goethe'' 2013)

  • 03:41

    Samantha Fox — Touch Me (I Want Your Body) (OST ''Зачётный препод | Иди к черту, Гёте'' / ''Fack ju Göhte | Fuck you, Goethe'' 2013)

  • 03:08

    Martin Solveig & The Cataracs feat. Kyle — Hey Now (Single Mix) (ОСТ из фильма ''Зачётный препод | Иди к черту, Гёте'' / ''Fack ju Göhte | Fuck you, Goethe'' 2013)

  • muzofond.org


    Смотрите также