Скачать бесплатно синистер 2


Скачать фильм Синистер 2 через торрент в хорошем качестве бесплатно BDRip от Twi7ter

Раздают: 4 [ 7 KB/s ]
Размер: 1.42 GB | Добавлен: 1 год 8 мес. назад | Торрент скачан:1191 раз
Реклама Дарим 3000 рублей за регистрацию, не упусти свой шанс получить шикарный бонус!!!

06-02-2016 17:37 Синистер 2 Скачать торрент  

Синистер 2 / Sinister 2

«Бойся того, во что играют твои дети»

Год выпуска: 2015Страна: США, ВеликобританияЖанр: ужасы, триллер, детективПродолжительность: 01:33:02Перевод: Профессиональный (полное дублирование) [НТВ+]Субтитры: НетРежиссер: Киран Фой / Ciarán FoyВ ролях: Джеймс Рэнсон (Ex-Deputy So & So), Шаннин Соссамон (Courtney Collins), Роберт Дэниэл Слоун (Dylan Collins), Дартаниан Слоун (Zach Collins), Лиа Коко (Clint Collins), Тейт Эллингтон (Dr. Stomberg), Джон Бизли (Father Rodriguez), Лукас Джейд Зуманн (Milo (Sunday Service Boy)), Джейден Клейн (Ted (Fishing Trip Boy)), Лайла Хейли (Emma (Christmas Morning Girl)), Кейден М. Фриц (Peter (Kitchen Remodel Boy)), Оливия Рэйни (Catherine (Dentist Appointment Girl))Описание: Сиквел рассказывает о молодом шерифе, решившем продолжить расследование серии таинственных убийств, описанных в первой части фильма, из-за которых в своё время потерял жизнь друг шерифа, сержант Элиссон Освальф.Расследование приводит шерифа к ферме, где он знакомится с дружелюбной семьей - близнецами Заком, Диланом и их матерью Кортни. Семьей, сбежавшей от издевательств жестокого отца. Каждый день, проведенный в этом доме, может стать для них последним, как и для всех, кто жил здесь ранее и попал в поле зрения самой смерти - беспощадного демона Багула.Рейтинг:

MPAA: R - Лицам до 17 лет обязательно присутствие взрослого

Качество: BDRip | исх. Sinister 2 2015 COMPLETE BLURAY-BAKED |Формат: AVIВидео кодек: XviDАудио кодек: AC3Видео: 720x304 (2.37:1), 25 fps, XviD build 73 ~1790 kbps avg, 0.33 bit/pixelАудио: 48 kHz, AC3 Dolby Digital, 3/2 (L,C,R,l,r) + LFE ch, ~384 kbps

Релиз:

Скачать Синистер 2 через торрент http://s018.radikal.ru/i506/1602/41/9a0ad04c7007.png Скачать фильм Синистер 2 через торрент бесплантно в хорошем качестве Описание: Сиквел рассказывает о молодом шерифе, решившем продолжить расследование серии таинственных убийств, описанных в первой части ... 2016-02-06 17:37 9 10 27

Loading...

Loading...

% Раздел Тема Автор DL S | L
T Фильмы (Blu-ray, BD-Remux, HDDVD) [ 12.37 GB ] Синистер 2 / Sinister 2 [2015 ] - [Чистый звук] Blu-ray Remux [1080p] DINO-UFO Скачать
Фильмы 2015 [DVDrip, WEB-DLRip, HDrip] [ 1.42 GB ] Синистер 2 / Sinister 2 [2015 BDRip ] Twi7ter Скачать
Фильмы 2015 [DVDrip, WEB-DLRip, HDrip] [ 2.14 GB ] Синистер 2 / Sinister 2 [2015 BDRip-AVC] Dub [НТВ potroks Скачать
Фильмы 2015 [DVDrip, WEB-DLRip, HDrip] [ 1.42 GB ] Синистер 2 / Sinister 2 [2015 BDRip-AVC] Dub [НТВ potroks Скачать
Фильмы [HD 720p, 1080p] (Хороший звук DUB, MVO) [ 9.29 GB ] Синистер 2 / Sinister 2 [2015 BDRip 1080p - [НТВ Ворон Скачать

Рекламный пират

06-02-2016 17:48 Синистер 2 Скачать торрент  

Официальный 6-ти канальный звук!

15-02-2016 00:37 Синистер 2 Скачать торрент  

ерунда несусветная. на мой взгляд. за раздачу - спасибо

Дорогой пользователь! Огромная просьба, поблагодарите релизера, оцените раздачу и оставьте свои комментарий, если Вы скачали Синистер 2 через торрент бесплатно! Внесите свою лепту в развитие PiratBit!

Комментировать посты могут только пользователи прошедшие не сложную регистрацию

Синистер 2 через торрент Скачать бесплатно Синистер 2 Синистер 2 скачать торрент Синистер 2 смотреть онлайн Cкачать фильм Синистер 2 бесплатно Синистер 2 скачать торрент в хорошем качестве Синистер 2 смотреть онлайн бесплатно в хорошем качестве

Вы не можете начинать темыВы не можете отвечать на сообщенияВы не можете редактировать свои сообщенияВы не можете удалять свои сообщенияВы не можете голосовать в опросахВы не можете прикреплять файлы к сообщениямВы можете скачивать файлы

piratbit.ru

Скачать фильм Синистер 2 через торрент в хорошем качестве бесплатно BDRip-AVC от potroks

GeneralUnique ID                                : 201372793893804436803973164803922166518 (0x977EFD47A5AFBEBA8032823C10DD82F6)Complete name                            : D:\Ужасы\Sinister.2.2015.RUS.BDRip.x264.-HELLYWOOD.mkvFormat                                   : MatroskaFormat version                           : Version 4 / Version 2File size                                : 1.42 GiBDuration                                 : 1h 33mnOverall bit rate                         : 2 184 KbpsMovie name                               : Sinister 2 (2015) - HELLYWOODEncoded date                             : UTC 2016-02-06 03:27:11Writing application                      : mkvmerge v5.9.0 ('On The Loose') built on Dec 15 2012 16:39:58Writing library                          : libebml v1.3.0 + libmatroska v1.4.0

VideoID                                       : 1Format                                   : AVCFormat/Info                              : Advanced Video CodecFormat profile                           : [email protected] settings, CABAC                   : YesFormat settings, ReFrames                : 10 framesCodec ID                                 : V_MPEG4/ISO/AVCDuration                                 : 1h 33mnBit rate                                 : 1 799 KbpsWidth                                    : 1 032 pixelsHeight                                   : 430 pixelsDisplay aspect ratio                     : 2.40:1Frame rate                               : 25.000 fpsColor space                              : YUVChroma subsampling                       : 4:2:0Bit depth                                : 8 bitsScan type                                : ProgressiveBits/(Pixel*Frame)                       : 0.162Stream size                              : 1.14 GiB (80%)Title                                    : potroksWriting library                          : x264 core 146 r2538 121396cEncoding settings                        : cabac=1 / ref=10 / deblock=1:-2:-2 / analyse=0x3:0x113 / me=umh / subme=11 / psy=1 / psy_rd=1.05:0.10 / mixed_ref=1 / me_range=48 / chroma_me=1 / trellis=2 / 8x8dct=1 / cqm=0 / deadzone=21,11 / fast_pskip=0 / chroma_qp_offset=-3 / threads=9 / lookahead_threads=2 / sliced_threads=0 / nr=0 / decimate=0 / interlaced=0 / bluray_compat=0 / constrained_intra=0 / bframes=11 / b_pyramid=2 / b_adapt=2 / b_bias=0 / direct=3 / weightb=1 / open_gop=0 / weightp=2 / keyint=250 / keyint_min=23 / scenecut=40 / intra_refresh=0 / rc_lookahead=60 / rc=2pass / mbtree=0 / bitrate=1799 / ratetol=1.0 / qcomp=0.70 / qpmin=0 / qpmax=69 / qpstep=4 / cplxblur=20.0 / qblur=0.5 / vbv_maxrate=14000 / vbv_bufsize=14000 / nal_hrd=none / filler=0 / ip_ratio=1.40 / pb_ratio=1.30 / aq=1:0.80Language                                 : EnglishDefault                                  : YesForced                                   : No

AudioID                                       : 2Format                                   : AC-3Format/Info                              : Audio Coding 3Mode extension                           : CM (complete main)Codec ID                                 : A_AC3Duration                                 : 1h 33mnBit rate mode                            : ConstantBit rate                                 : 384 KbpsChannel(s)                               : 6 channelsChannel positions                        : Front: L C R, Side: L R, LFESampling rate                            : 48.0 KHzBit depth                                : 16 bitsCompression mode                         : LossyStream size                              : 256 MiB (18%)Title                                    : Dub | DD 5.1 @ 384 kbps - NTV+Language                                 : RussianDefault                                  : YesForced                                   : No

TextID                                       : 3Format                                   : UTF-8Codec ID                                 : S_TEXT/UTF8Codec ID/Info                            : UTF-8 Plain TextTitle                                    : ForcedLanguage                                 : RussianDefault                                  : YesForced                                   : No

Menu00:00:00.000                             : en:(01)00:00:00:00000:05:00.000                             : en:(02)00:05:00:00000:10:00.000                             : en:(03)00:10:00:00000:15:00.000                             : en:(04)00:15:00:00000:20:00.000                             : en:(05)00:20:00:00000:25:00.000                             : en:(06)00:25:00:00000:30:00.000                             : en:(07)00:30:00:00000:35:00.000                             : en:(08)00:35:00:00000:40:00.000                             : en:(09)00:40:00:00000:45:00.000                             : en:(10)00:45:00:00000:50:00.000                             : en:(11)00:50:00:00000:55:00.000                             : en:(12)00:55:00:00001:00:00.000                             : en:(13)01:00:00:00001:05:00.000                             : en:(14)01:05:00:00001:10:00.000                             : en:(15)01:10:00:00001:15:00.000                             : en:(16)01:15:00:00001:20:00.000                             : en:(17)01:20:00:00001:25:00.000                             : en:(18)01:25:00:00001:30:00.000                             : en:(19)01:30:00:000

piratbit.ru

Скачать фильм Синистер 2 через торрент в хорошем качестве бесплатно BDRip от Twi7ter

Раздают: 1 [ 0 KB/s ]
Размер: 1.46 GB | Добавлен: 1 год 10 мес. назад | Торрент скачан:2887 раз
Реклама Дарим 3000 рублей за регистрацию, не упусти свой шанс получить шикарный бонус!!!

21-12-2015 23:10 Синистер 2 Скачать торрент  

Синистер 2 / Sinister 2

«Бойся того, во что играют твои дети»

Год выпуска: 2015Страна: США, ВеликобританияЖанр: ужасы, триллер, детективПродолжительность: 01:36:42Перевод: Профессиональный (полное дублирование) [Чистый звук]Субтитры: НетРежиссер: Киран Фой / Ciarán FoyВ ролях: Джеймс Рэнсон (Ex-Deputy So & So), Шаннин Соссамон (Courtney Collins), Роберт Дэниэл Слоун (Dylan Collins), Дартаниан Слоун (Zach Collins), Лиа Коко (Clint Collins), Тейт Эллингтон (Dr. Stomberg), Джон Бизли (Father Rodriguez), Лукас Джейд Зуманн (Milo (Sunday Service Boy)), Джейден Клейн (Ted (Fishing Trip Boy)), Лайла Хейли (Emma (Christmas Morning Girl)), Кейден М. Фриц (Peter (Kitchen Remodel Boy)), Оливия Рэйни (Catherine (Dentist Appointment Girl))Описание: Сиквел рассказывает о молодом шерифе, решившем продолжить расследование серии таинственных убийств, описанных в первой части фильма, из-за которых в своё время потерял жизнь друг шерифа, сержант Элиссон Освальф.Расследование приводит шерифа к ферме, где он знакомится с дружелюбной семьей - близнецами Заком, Диланом и их матерью Кортни. Семьей, сбежавшей от издевательств жестокого отца. Каждый день, проведенный в этом доме, может стать для них последним, как и для всех, кто жил здесь ранее и попал в поле зрения самой смерти - беспощадного демона Багула.Рейтинг:

MPAA: R - Лицам до 17 лет обязательно присутствие взрослого

Качество: BDRip | исх. Sinister 2 2015 COMPLETE BLURAY-BAKED |Формат: AVIВидео кодек: XviDАудио кодек: AC3Видео: 720x304 (2.37:1), 24 fps, XviD build 73 ~1705 kbps avg, 0.32 bit/pixelАудио №1: 48 kHz, AC3 Dolby Digital, 2/0 (L,R) ch, ~192 kbps - RUSАудио №2: 48 kHz, AC3 Dolby Digital, 2/0 (L,R) ch, ~256 kbps - ENG

Релиз: & MegaPeer

Скачать Синистер 2 через торрент http://s017.radikal.ru/i441/1512/a9/8c44ad89fec3.png Скачать фильм Синистер 2 через торрент бесплантно в хорошем качестве Описание: Сиквел рассказывает о молодом шерифе, решившем продолжить расследование серии таинственных убийств, описанных в первой части ... 2015-12-21 23:10 9.2 10 59

Loading...

Loading...

Рекламный пират

21-12-2015 23:18 Синистер 2 Скачать торрент  

Рип без всякой рекламы и прочей гадости!

22-12-2015 04:52 Синистер 2 Скачать торрент  

Хороший фильм на разок вполне неплохо.

22-12-2015 08:06 Синистер 2 Скачать торрент  

Весь фильм ждал какого то скримера чтоль ,так и не дождался ничего, раз и конец! Так и возникает вопрос, кто этот фильм ужасами то назвал, и как появилась вторая часть этой дрисни ,первая вроде не собрала вокруг себя много хайпа .

22-12-2015 09:35 Синистер 2 Скачать торрент  

Мнения 50 на 50, поверю бобру

22-12-2015 13:13 Синистер 2 Скачать торрент  

Спасибо и респект автору! Забираю :)

22-12-2015 14:46 Синистер 2 Скачать торрент  

Первая часть была нормальная, ща посмотрим 2 часть.

22-12-2015 17:59 Синистер 2 Скачать торрент  

Норм ужастик на 1н раз так точно потянет

22-12-2015 20:48 Синистер 2 Скачать торрент  

Смотрел в кино. Фильм вообще не о чем, не ужеш с сеанса только из-за того, что жаба душила за потраченные деньги...

Pекламный агент PB

22-12-2015 21:15 Синистер 2 Скачать торрент  

Не, ну людям ,которые смотря "Пиковую даму" (Русского производства) испытали невероятный ужас и страх ,немного обгадив штанцы , фильм зайдет просто на 10 из 10

23-12-2015 18:41 Синистер 2 Скачать торрент  

Эт от куда ж столько ? Раздают: 8650 [ 529 MB/s ] Качают: 2414 [ 575 MB/s ]

24-12-2015 05:41 Синистер 2 Скачать торрент  

Первая часть понравилась больше!

24-12-2015 16:50 Синистер 2 Скачать торрент  

неплохое кино,как и первая часть. посмотрел с удовольствием

26-12-2015 18:14 Синистер 2 Скачать торрент  

12-01-2016 16:41 Синистер 2 Скачать торрент  

Дорогой пользователь! Огромная просьба, поблагодарите релизера, оцените раздачу и оставьте свои комментарий, если Вы скачали Синистер 2 через торрент бесплатно! Внесите свою лепту в развитие PiratBit!

Комментировать посты могут только пользователи прошедшие не сложную регистрацию

Синистер 2 через торрент Скачать бесплатно Синистер 2 Синистер 2 скачать торрент Синистер 2 смотреть онлайн Cкачать фильм Синистер 2 бесплатно Синистер 2 скачать торрент в хорошем качестве Синистер 2 смотреть онлайн бесплатно в хорошем качестве

Вы можете начинать темыВы можете отвечать на сообщенияВы не можете редактировать свои сообщенияВы не можете удалять свои сообщенияВы не можете голосовать в опросахВы не можете прикреплять файлы к сообщениямВы можете скачивать файлы

piratbit.ru

Скачать торрент Синистер 2 / Sinister 2 (2015) HDRip от Шкипер

Информация о фильмеНазвание: Синистер 2Оригинальное название: Sinister 2Год выхода: 2015Жанр: УжасыРежиссер: Киран ФойВ ролях: Джеймс Рэнсон, Шаннин Соссамон, Роберт Дэниэл Слоун, Дартаниан Слоун, Лиа Коко, Тейт Эллингтон, Джон Бизли, Лукас Джейд Зуманн, Джейден Клейн, Лайла Хейли, Кейден М. Фриц, Оливия Рэйни, Николас Кинг, Майкл Б. Вудс, Тори О. Дэвис, Хоуи Джонсон, Грэйс Холуби, Джон Френсис Маунтин, Николь Сантини, Стивен ВаргаРоли дублировали: Михаил Тишин, Алена Узлюк, Екатерина Буцкая, Анна Соболева, Роман Чупис

О фильме: Сиквел рассказывает о молодом шерифе, решившем продолжить расследование серии таинственных убийств, описанных в первой части фильма, из-за которых в своё время потерял жизнь друг шерифа, сержант Элиссон Освальф. Расследование приводит шерифа к ферме, где он знакомится с дружелюбной семьей — близнецами Заком, Диланом и их матерью Кортни. Семьей, сбежавшей от издевательств жестокого отца. Каждый день, проведенный в этом доме, может стать для них последним, как и для всех, кто жил здесь ранее и попал в поле зрения самой смерти — беспощадного демона Багула. Страна: СШАСтудия: Automatik Entertainment, Blumhouse Productions, Entertainment One, IM Global, Tank CaterpillarПродолжительность: 01:33:03Перевод: Дублированный [НТВ+]

ФайлКодек: XviDКачество: HDRipВидео: 656x272 (2.40:1), 25 fps, XviD build 73 ~982 kbps avg, 0.22 bit/pixelЗвук: 48 kHz, MPEG Layer 3, 2 ch, ~128.00 kbps avgСубтитры: Отисутствует

Семпл

MI

General Complete name : D:Изготовление рипаSinister.II.2O15.D.HDRip.by shkiper.avi Format : AVI Format/Info : Audio Video Interleave File size : 745 MiB Duration : 1h 33mn Overall bit rate : 1 120 Kbps Writing application : VirtualDubMod 1.5.10.3 | www.virtualdub-fr.org || (build 2550/release) Writing library : VirtualDubMod build 2550/release

Video ID : 0 Format : MPEG-4 Visual Format profile : Advanced [email protected] Format settings, BVOP : 1 Format settings, QPel : No Format settings, GMC : No warppoints Codec ID : XVID Codec ID/Hint : XviD Duration : 1h 33mn Bit rate : 982 Kbps Width : 656 pixels Height : 272 pixels Display aspect ratio : 2.40:1 Frame rate : 25.000 fps Color space : YUV Chroma subsampling : 4:2:0 Bit depth : 8 bits Scan type : Progressive Compression mode : Lossy Bits/(Pixel*Frame) : 0.220 Stream size : 654 MiB (88%) Writing library : XviD 73

Audio ID : 1 Format : MPEG Audio Format version : Version 1 Format profile : Layer 3 Codec ID : 55 Codec ID/Hint : MP3 Duration : 1h 33mn Bit rate mode : Constant Bit rate : 128 Kbps Channel(s) : 2 channels Sampling rate : 48.0 KHz Compression mode : Lossy Stream size : 85.2 MiB (11%) Alignment : Aligned on interleaves Interleave, duration : 40 ms (1.00 video frame) Interleave, preload duration : 504 ms Writing library : LAME3.99r Encoding settings : -m s -V 4 -q 2 -lowpass 17 -b 128

Релиз от:

krutor.org

Скачать фильм Синистер 2 через торрент в хорошем качестве бесплатно BDRip от Twi7ter

Раздают: 2 [ 0 KB/s ]
Размер: 1.42 GB | Добавлен: 1 год 6 мес. назад | Торрент скачан:221 раз
Реклама Дарим 3000 рублей за регистрацию, не упусти свой шанс получить шикарный бонус!!!

21-04-2016 20:22 Синистер 2 Скачать торрент  

Синистер 2 / Sinister 2

«Бойся того, во что играют твои дети»

Год выпуска: 2015Страна: США, ВеликобританияЖанр: ужасы, триллер, детективПродолжительность: 01:33:02Перевод: Профессиональный (полное дублирование) [iTunes]Субтитры: НетРежиссер: Киран Фой / Ciarán FoyВ ролях: Джеймс Рэнсон (Ex-Deputy So & So), Шаннин Соссамон (Courtney Collins), Роберт Дэниэл Слоун (Dylan Collins), Дартаниан Слоун (Zach Collins), Лиа Коко (Clint Collins), Тейт Эллингтон (Dr. Stomberg), Джон Бизли (Father Rodriguez), Лукас Джейд Зуманн (Milo (Sunday Service Boy)), Джейден Клейн (Ted (Fishing Trip Boy)), Лайла Хейли (Emma (Christmas Morning Girl)), Кейден М. Фриц (Peter (Kitchen Remodel Boy)), Оливия Рэйни (Catherine (Dentist Appointment Girl))Описание: Сиквел рассказывает о молодом шерифе, решившем продолжить расследование серии таинственных убийств, описанных в первой части фильма, из-за которых в своё время потерял жизнь друг шерифа, сержант Элиссон Освальф.Расследование приводит шерифа к ферме, где он знакомится с дружелюбной семьей - близнецами Заком, Диланом и их матерью Кортни. Семьей, сбежавшей от издевательств жестокого отца. Каждый день, проведенный в этом доме, может стать для них последним, как и для всех, кто жил здесь ранее и попал в поле зрения самой смерти - беспощадного демона Багула.Рейтинг:

MPAA: R - Лицам до 17 лет обязательно присутствие взрослого

Качество: BDRip | исх. Sinister 2 2015 COMPLETE BLURAY-BAKED |Формат: AVIВидео кодек: XviDАудио кодек: AC3Видео: 720x304 (2.37:1), 25 fps, XviD build 73 ~1790 kbps avg, 0.33 bit/pixelАудио: 48 kHz, AC3 Dolby Digital, 3/2 (L,C,R,l,r) + LFE ch, ~384 kbps

Релиз:

Скачать Синистер 2 через торрент http://s018.radikal.ru/i506/1602/41/9a0ad04c7007.png Скачать фильм Синистер 2 через торрент бесплантно в хорошем качестве Описание: Сиквел рассказывает о молодом шерифе, решившем продолжить расследование серии таинственных убийств, описанных в первой части ... 2016-04-21 20:22 5.6 10 8

Loading...

Loading...

Рекламный пират

21-04-2016 21:27 Синистер 2 Скачать торрент  

В сравнении с первой частью, слабовато.

22-04-2016 04:33 Синистер 2 Скачать торрент  

Первая неплохая была)

Дорогой пользователь! Огромная просьба, поблагодарите релизера, оцените раздачу и оставьте свои комментарий, если Вы скачали Синистер 2 через торрент бесплатно! Внесите свою лепту в развитие PiratBit!

Комментировать посты могут только пользователи прошедшие не сложную регистрацию

Синистер 2 через торрент Скачать бесплатно Синистер 2 Синистер 2 скачать торрент Синистер 2 смотреть онлайн Cкачать фильм Синистер 2 бесплатно Синистер 2 скачать торрент в хорошем качестве Синистер 2 смотреть онлайн бесплатно в хорошем качестве

Вы не можете начинать темыВы не можете отвечать на сообщенияВы не можете редактировать свои сообщенияВы не можете удалять свои сообщенияВы не можете голосовать в опросахВы не можете прикреплять файлы к сообщениямВы можете скачивать файлы

piratbit.ru


Смотрите также