Скачать бесплатно мученицы


Скачать фильм Мученицы через торрент в хорошем качестве бесплатно HDRip

Размер: 1.37 GB | Добавлен: 6 лет 6 мес. назад | Торрент скачан:72 раза
Реклама Дарим 3000 рублей за регистрацию, не упусти свой шанс получить шикарный бонус!!!

06-04-2011 05:57 Мученицы Скачать торрент  

Мученицы / Martyrs Год выпуска: 2008Страна: Канада, ФранцияЖанр: ужасы, триллер, драмаПродолжительность: 99 мин.Перевод: Профессиональный (многоголосый, закадровый)Режиссер: Паскаль ЛожьеПродюссер: Ришар Гранпьер, Саймон Троттье, Фредерик ДонекуанСценарий: Паскаль ЛожьеБюджет: $6 500 000R-Лицам до 17 лет обязательно присутствие взрослогоМировой рейтинг IMDB 7.00 (14 522) В ролях: Моржана Эль Алюи, Лена Джэм-Пэной, Катрина Беджин, Роберт Тоупин, Патриция Тулаше, Джульет Госселин, Изабелль Чассе, Гаелль Коэн, Эрика Скотт, Херв ДебуаОписание: Франция, начало 70-х. Люси, маленькая девочка, почти год считавшаяся пропавшей без вести, обнаружена бредущей по проселочной дороге. Ребенок в состоянии глубокого шока и не может рассказать о случившемся. Полиция быстро находит место ее заточения — заброшенную скотобойню. Все говорит о том, что девочка долгое время не покидала своей тюрьмы. На грязном, исхудавшем, обезвоженном теле ребенка нет никаких следов сексуального насилия: это не было преступление, совершенное педофилом, но что-то гораздо более странное. Что случилось в этом месте? И как Люси сумела сбежать?Качество: HDRip [Рип с BDRip 720p]Формат: AVIВидео кодек: XviDАудио кодек: AC3Видео: 1578 kb/s, 720x384Аудио: 384 kb/s (6 ch)Релиз от:        Скачать Мученицы через торрент http://piratbit.in.ua/6fcf3a294a303c106082228f12716e7d.png Скачать фильм Мученицы через торрент бесплантно в хорошем качестве Описание: Франция, начало 70-х. Люси, маленькая девочка, почти год считавшаяся пропавшей без вести, обнаружена бредущей по проселочной ... 2011-04-06 05:57 10 10 1

Loading...

Loading...

Рекламный пират

06-04-2011 06:38 Мученицы Скачать торрент  

06-04-2011 06:40 Мученицы Скачать торрент  

rain010 писал(а):

Как фильм?

Любителям жанра понравится

06-04-2011 07:15 Мученицы Скачать торрент  

согласен это на любителя жанра .

06-04-2011 07:37 Мученицы Скачать торрент  

Дорогой пользователь! Огромная просьба, поблагодарите релизера, оцените раздачу и оставьте свои комментарий, если Вы скачали Мученицы через торрент бесплатно! Внесите свою лепту в развитие PiratBit!

Комментировать посты могут только пользователи прошедшие не сложную регистрацию

Мученицы через торрент Скачать бесплатно Мученицы Мученицы скачать торрент Мученицы смотреть онлайн Cкачать фильм Мученицы бесплатно Мученицы скачать торрент в хорошем качестве Мученицы смотреть онлайн бесплатно в хорошем качестве

Вы не можете начинать темыВы не можете отвечать на сообщенияВы не можете редактировать свои сообщенияВы не можете удалять свои сообщенияВы не можете голосовать в опросахВы не можете прикреплять файлы к сообщениямВы можете скачивать файлы

piratbit.ru

Скачать фильм Мученицы через торрент в хорошем качестве бесплатно HDRip

Раздают: 1 [ 0 KB/s ]
Размер: 1.36 GB | Добавлен: 1 год 8 мес. назад | Торрент скачан:140 раз
Реклама Дарим 3000 рублей за регистрацию, не упусти свой шанс получить шикарный бонус!!!

11-02-2016 11:23 Мученицы Скачать торрент  

Мученицы / Martyrs
  • Год выпуска: 2015
  • Страна: США
  • Жанр: ужасы, триллер, драма
  • Продолжительность: 01:26:25
  • Перевод: Профессиональный дублированный [звук с TS]
  • Режиссер: Кевин Гетц / Kevin Goetz, Майкл Гетц / Michael Goetz
  • В ролях: Тройэн Эвери Беллисарио, Кэйтлин Кармайкл (Sam), Кейт Бёртон, Бэйли Ноубл, Тоби Хасс (Fenton), Лекси ДиБенедетто (Nicole Patterson), Тейлор Джон Смит (Brian Patterson), Диана Хоппер (Sarah), Блейк Роббинс, Питер Майкл Гец (Professor), Бориана Уильямс (Orphan), Эдвин Модлин (SWAT Team Leader)
  • Спустя год после своего исчезновения, десятилетняя Люси неожиданно находится. Девочка так напугана, что не может ни с кем разговаривать и рассказать, что же с ней произошло. Проходит 10 лет. Люси все еще продолжают посещать кошмары и она не оставляет попыток выяснить, что с ней тогда случилось. И когда она, наконец, вместе со своей подругой, приближается вплотную к разгадке тайны, то попадает в новую ловушку. Теперь, если им не удастся найти выход, им грозит страшная и мучительная смерть.
  • Рейтинг:
  • Качество: HDRip
  • Формат: :AVI
  • Видео кодек: XviD
  • Аудио кодек: AC3
  • Видео: 720x304 (2.35:1), 1847 kbps, 23,976 fps, 0,366 bpp
  • Аудио: AC3, 2 ch, 384 Кбит/с / 48 kHz Скриншоты:
  • Скачать Мученицы через торрент http://i75.fastpic.ru/big/2016/0123/77/b389c6ebb50b7ed1be84fdf7e84c4877.jpg Скачать фильм Мученицы через торрент бесплантно в хорошем качестве qw.png Спустя год после своего исчезновения, десятилетняя Люси неожиданно находится. Девочка так напугана, что не может ни с кем ... 2016-02-11 11:23 10 10 9

    Loading...

    Loading...

    Рекламный пират

    11-02-2016 14:10 Мученицы Скачать торрент  

    Лучше еще раз пересмотреть французский оригинал..Этот даже рядом не стоял..Лайт версия для детей!

    Дорогой пользователь! Огромная просьба, поблагодарите релизера, оцените раздачу и оставьте свои комментарий, если Вы скачали Мученицы через торрент бесплатно! Внесите свою лепту в развитие PiratBit!

    Комментировать посты могут только пользователи прошедшие не сложную регистрацию

    Мученицы через торрент Скачать бесплатно Мученицы Мученицы скачать торрент Мученицы смотреть онлайн Cкачать фильм Мученицы бесплатно Мученицы скачать торрент в хорошем качестве Мученицы смотреть онлайн бесплатно в хорошем качестве

    Вы можете начинать темыВы можете отвечать на сообщенияВы не можете редактировать свои сообщенияВы не можете удалять свои сообщенияВы не можете голосовать в опросахВы не можете прикреплять файлы к сообщениямВы можете скачивать файлы

    piratbit.ru

    Скачать фильм Мученицы через торрент в хорошем качестве бесплатно HDRip

    Раздают: 1 [ 0 KB/s ]
    Размер: 1.36 GB | Добавлен: 1 год 7 мес. назад | Торрент скачан:233 раза
    Реклама Дарим 3000 рублей за регистрацию, не упусти свой шанс получить шикарный бонус!!!

    07-03-2016 17:53 Мученицы Скачать торрент  

    Мученицы / Martyrs Год выпуска: 2015Страна: США / Blumhouse Productions, Safran Company, The, Temple Hill EntertainmenЖанр: ужасы, триллер, драмаПродолжительность: 01:26:25
    • Перевод: Дубляж - [Лицензия / iTunes]
    • Оригинальная аудиодорожка: Нет
    Режиссер: Кевин Гетц, Майкл Гетц В ролях: Тройэн Эвери Беллисарио (Lucie), Бэйли Ноубл (Anna), Кейт Бёртон (Eleanor), Кэйтлин Кармайкл (Sam), Мелисса Трэйси (The Creature), Роми Роузмонт (Mom), Тоби Хасс (Fenton), Элиз Коул (Young Anna), Эвер Пришкульник (Young Lucie), Блейк Роббинс (Dad), Тейлор Джон Смит (Son), Лекси ДиБенедетто (Daughter) Описание: Спустя год после своего исчезновения, десятилетняя Люси неожиданно находится. Девочка так напугана, что не может ни с кем разговаривать и рассказать, что же с ней произошло. Проходит 10 лет. Люси все еще продолжают посещать кошмары и она не оставляет попыток выяснить, что с ней тогда случилось. И когда она, наконец, вместе со своей подругой, приближается вплотную к разгадке тайны, то попадает в новую ловушку. Теперь, если им не удастся найти выход, им грозит страшная и мучительная смерть.
    • Тип релиза: HDRip
    • Формат: AVI
    • Видео кодек: XviD | Аудио кодек: AC3
    • Видео: XviD, 720x304 (2.35:1), 1861 kbps, 23,976 fps, 0,355 bpp
    • Аудио: AC3 / 5.1 / 48 kHz / 384 kbps / 16 bit
    • Сэмпл: скачать
    GeneralComplete name : C:\торрент\тор\My4enicy.2015.D.HDRip.aviFormat : AVIFormat/Info : Audio Video InterleaveFile size : 1.36 GiBDuration : 1h 26mnOverall bit rate : 2 255 KbpsWriting application : VirtualDubMod 1.5.10.2 (build 2540/release)Writing library : VirtualDubMod build 2540/release

    VideoID : 0Format : MPEG-4 VisualFormat profile : Advanced [email protected] settings, BVOP : 2Format settings, QPel : NoFormat settings, GMC : No warppointsFormat settings, Matrix : Default (MPEG)Codec ID : XVIDCodec ID/Hint : XviDDuration : 1h 26mnBit rate : 1 862 KbpsWidth : 720 pixelsHeight : 304 pixelsDisplay aspect ratio : 2.35:1Frame rate : 23.976 (23976/1000) fpsColor space : YUVChroma subsampling : 4:2:0Bit depth : 8 bitsScan type : ProgressiveCompression mode : LossyBits/(Pixel*Frame) : 0.355Stream size : 1.12 GiB (83%)Writing library : XviD 1.2.1 (UTC 2008-12-04)

    AudioID : 1Format : AC-3Format/Info : Audio Coding 3Mode extension : CM (complete main)Format settings, Endianness : BigCodec ID : 2000Duration : 1h 26mnBit rate mode : ConstantBit rate : 384 KbpsChannel(s) : 6 channelsChannel positions : Front: L C R, Side: L R, LFESampling rate : 48.0 KHzFrame rate : 31.250 fps (1536 spf)Compression mode : LossyStream size : 237 MiB (17%)Alignment : Split accross interleavesInterleave, duration : 42 ms (1.00 video frame)Interleave, preload duratio : 500 ms

    Скачать Мученицы через торрент http://i75.fastpic.ru/big/2016/0307/ea/33cfe502ee6663775f79916a5b7f5fea.jpg Скачать фильм Мученицы через торрент бесплантно в хорошем качестве Описание: Спустя год после своего исчезновения, десятилетняя Люси неожиданно находится. Девочка так напугана, что не может ни с кем ... 2016-03-07 17:53 8.9 10 14

    Loading...

    Loading...

    Рекламный пират

    08-03-2016 04:18 Мученицы Скачать торрент  

    Слабенький фильм мне непонравился(

    Дорогой пользователь! Огромная просьба, поблагодарите релизера, оцените раздачу и оставьте свои комментарий, если Вы скачали Мученицы через торрент бесплатно! Внесите свою лепту в развитие PiratBit!

    Комментировать посты могут только пользователи прошедшие не сложную регистрацию

    Мученицы через торрент Скачать бесплатно Мученицы Мученицы скачать торрент Мученицы смотреть онлайн Cкачать фильм Мученицы бесплатно Мученицы скачать торрент в хорошем качестве Мученицы смотреть онлайн бесплатно в хорошем качестве

    Вы не можете начинать темыВы не можете отвечать на сообщенияВы не можете редактировать свои сообщенияВы не можете удалять свои сообщенияВы не можете голосовать в опросахВы не можете прикреплять файлы к сообщениямВы можете скачивать файлы

    piratbit.ru

    Скачать фильм Мученицы через торрент в хорошем качестве бесплатно HDRip

    Размер: 1.43 GB | Добавлен: 1 год 9 мес. назад | Торрент скачан:230 раз
    Реклама Дарим 3000 рублей за регистрацию, не упусти свой шанс получить шикарный бонус!!!

    23-01-2016 01:35 Мученицы Скачать торрент  

    Мученицы / Martyrs
  • Год выпуска: 2015
  • Страна: США
  • Жанр: ужасы, триллер, драма
  • Продолжительность: 01:26:25
  • Перевод: Любительский (одноголосый) [Xixidok]
  • Режиссер: Кевин Гетц / Kevin Goetz, Майкл Гетц / Michael Goetz
  • В ролях: Тройэн Эвери Беллисарио, Кэйтлин Кармайкл (Sam), Кейт Бёртон, Бэйли Ноубл, Тоби Хасс (Fenton), Лекси ДиБенедетто (Nicole Patterson), Тейлор Джон Смит (Brian Patterson), Диана Хоппер (Sarah), Блейк Роббинс, Питер Майкл Гец (Professor), Бориана Уильямс (Orphan), Эдвин Модлин (SWAT Team Leader)
  • Спустя год после своего исчезновения, десятилетняя Люси неожиданно находится. Девочка так напугана, что не может ни с кем разговаривать и рассказать, что же с ней произошло. Проходит 10 лет. Люси все еще продолжают посещать кошмары и она не оставляет попыток выяснить, что с ней тогда случилось. И когда она, наконец, вместе со своей подругой, приближается вплотную к разгадке тайны, то попадает в новую ловушку. Теперь, если им не удастся найти выход, им грозит страшная и мучительная смерть.
  • Рейтинг:
  • Качество: HDRip
  • Формат: :AVI
  • Видео кодек: XviD
  • Аудио кодек: AC3
  • Видео: 720x304 (2.35:1), 1919 kbps, 23,976 fps, 0,366 bpp
  • Аудио: 5.1 / 48 kHz / 448 kbps / 16 bit
  • Релиз от: GEKADOL

    Код:

    GeneralComplete name                            : G:\Martyrs.2015.L1.HDRip.aviFormat                                   : AVIFormat/Info                              : Audio Video InterleaveFile size                                : 1.43 GiBDuration                                 : 1h 26mnOverall bit rate                         : 2 376 KbpsWriting application                      : VirtualDubMod 1.5.10.3 | www.virtualdub-fr.org || (build 2550/release)Writing library                          : VirtualDubMod build 2550/release

    VideoID                                       : 0Format                                   : MPEG-4 VisualFormat profile                           : Advanced [email protected] settings, BVOP                    : 1Format settings, QPel                    : NoFormat settings, GMC                     : No warppointsFormat settings, Matrix                  : CustomCodec ID                                 : XVIDCodec ID/Hint                            : XviDDuration                                 : 1h 26mnBit rate                                 : 1 919 KbpsWidth                                    : 720 pixelsHeight                                   : 304 pixelsDisplay aspect ratio                     : 2.35:1Frame rate                               : 23.976 fpsColor space                              : YUVChroma subsampling                       : 4:2:0Bit depth                                : 8 bitsScan type                                : ProgressiveCompression mode                         : LossyBits/(Pixel*Frame)                       : 0.366Stream size                              : 1.16 GiB (81%)Writing library                          : XviD 73

    AudioID                                       : 1Format                                   : AC-3Format/Info                              : Audio Coding 3Mode extension                           : CM (complete main)Codec ID                                 : 2000Duration                                 : 1h 26mnBit rate mode                            : ConstantBit rate                                 : 448 KbpsChannel(s)                               : 6 channelsChannel positions                        : Front: L C R, Side: L R, LFESampling rate                            : 48.0 KHzBit depth                                : 16 bitsCompression mode                         : LossyStream size                              : 277 MiB (19%)Alignment                                : Split accross interleavesInterleave, duration                     : 42 ms (1.00 video frame)Interleave, preload duration             : 500 ms

    Скриншоты:
  • Скачать Мученицы через торрент http://i75.fastpic.ru/big/2016/0123/77/b389c6ebb50b7ed1be84fdf7e84c4877.jpg Скачать фильм Мученицы через торрент бесплантно в хорошем качестве qw.png Спустя год после своего исчезновения, десятилетняя Люси неожиданно находится. Девочка так напугана, что не может ни с кем ... 2016-01-23 01:35 5.5 10 4

    Loading...

    Loading...

    Рекламный пират

    23-01-2016 21:26 Мученицы Скачать торрент  

    Странный фильм...Не знаю, почему, но у меня ассоциации возникли с "Кожей, в которой я живу"!Фильм не ужасный и не страшный. Фильм мерзкий и противный, что тоже является одним из видов страха по Кингу!

    25-01-2016 09:30 Мученицы Скачать торрент  

    Помню фильм с таким же названием,вроде французкий,до сих пор как вспомню некоторые отрывки того фильма аж мутить начинает,надеюсь этот фильм на него не похож...

    Дорогой пользователь! Огромная просьба, поблагодарите релизера, оцените раздачу и оставьте свои комментарий, если Вы скачали Мученицы через торрент бесплатно! Внесите свою лепту в развитие PiratBit!

    Комментировать посты могут только пользователи прошедшие не сложную регистрацию

    Мученицы через торрент Скачать бесплатно Мученицы Мученицы скачать торрент Мученицы смотреть онлайн Cкачать фильм Мученицы бесплатно Мученицы скачать торрент в хорошем качестве Мученицы смотреть онлайн бесплатно в хорошем качестве

    Вы можете начинать темыВы можете отвечать на сообщенияВы не можете редактировать свои сообщенияВы не можете удалять свои сообщенияВы не можете голосовать в опросахВы не можете прикреплять файлы к сообщениямВы можете скачивать файлы

    piratbit.ru


    Смотрите также