Скачать бесплатно антиганг


Скачать торрент Антиганг / Antigang (2015) BDRip 720p

Информация о фильмеНазвание: Антиганг / Отряд Оригинальное название: AntigangГод выхода: 2015Жанр: боевик, драмаРежиссёр: Бенжамен РошеВ полях: Жан Рено, Элбан Ленуар, Катерина Мурино, Умар Диау, Стефи Сельма, Себастьен ЛаЛэйнн, Тьерри Нёвик, Жан-Туссен Бернард, Якоб Седергрен

О фильме: Серж Бюрен — легендарный полицейский, возглавляющий группу молодых приспешников с нетипичным подходом. И неважно, используют ли они бейсбольные биты или напрочь забывают об уставе во время показательных арестов, результат налицо. В то же время группировка смертоносных грабителей с легкостью обчищает столичные банки и ювелирные магазины. Бюрен и его подразделение попадают в непростую ситуацию: окажутся ли привычные им методы быстрого реагирования достаточными, для того чтобы остановить преступников?

Выпущено: Франция / Capture The Flag FilmsПродолжительность: 01:32:43Озвучивание: Любительское (многоголосное) [Студия "Paradox & Omskbird records"]

• Роли озвучивали: Анна Тух, Александр Дасевич, Константин Погодаев, Сергей Науменко, Паевл Ярощик и Давид Бродский• Перевод: Екатерина Кузнецова

Примечание: Релиз без рекламы.

ФайлФормат: MKVКачество: BDRip 720pВидео: MPEG-4 AVC, 3788 kb/s, 1280x534Аудио: Russian / French: AC3, 640 kb/s (6 ch)

MI

Format : Matroska Format version : Version 2 File size : 3.35 GiB Duration : 1h 32mn Overall bit rate : 5 171 Kbps Encoded date : UTC 2015-12-31 12:09:16 Writing application : mkvmerge v7.8.0 ('River Man') 32bit built on Apr 3 2015 12:11:22 Writing library : libebml v1.3.1 + libmatroska v1.4.2

Video ID : 1 Format : AVC Format/Info : Advanced Video Codec Format profile : [email protected] Format settings, CABAC : Yes Format settings, ReFrames : 12 frames Codec ID : V_MPEG4/ISO/AVC Duration : 1h 32mn Bit rate : 3 788 Kbps Width : 1 280 pixels Height : 534 pixels Display aspect ratio : 2.40:1 Frame rate mode : Constant Frame rate : 24.000 fps Color space : YUV Chroma subsampling : 4:2:0 Bit depth : 8 bits Scan type : Progressive Bits/(Pixel*Frame) : 0.231 Stream size : 2.45 GiB (73%) Writing library : x264 core 148 r2638 7599210 Encoding settings : cabac=1 / ref=12 / deblock=1:-3:-3 / analyse=0x3:0x133 / me=umh / subme=11 / psy=1 / psy_rd=0.99:0.05 / mixed_ref=1 / me_range=64 / chroma_me=1 / trellis=2 / 8x8dct=1 / cqm=0 / deadzone=6,6 / fast_pskip=0 / chroma_qp_offset=-3 / threads=6 / lookahead_threads=1 / sliced_threads=0 / nr=0 / decimate=0 / interlaced=0 / bluray_compat=0 / constrained_intra=0 / bframes=8 / b_pyramid=2 / b_adapt=2 / b_bias=0 / direct=3 / weightb=1 / open_gop=1 / weightp=2 / keyint=250 / keyint_min=24 / scenecut=40 / intra_refresh=0 / rc_lookahead=250 / rc=crf / mbtree=1 / crf=16.7 / qcomp=0.60 / qpmin=0 / qpmax=69 / qpstep=4 / vbv_maxrate=50000 / vbv_bufsize=50000 / crf_max=0.0 / nal_hrd=none / filler=0 / ip_ratio=1.40 / aq=2:1.00 Language : English Default : Yes Forced : No Color range : Limited Color primaries : BT.709 Transfer characteristics : BT.709 Matrix coefficients : BT.709

Audio #1 ID : 2 Format : AC-3 Format/Info : Audio Coding 3 Mode extension : CM (complete main) Format settings, Endianness : Big Codec ID : A_AC3 Duration : 1h 32mn Bit rate mode : Constant Bit rate : 640 Kbps Channel(s) : 6 channels Channel positions : Front: L C R, Side: L R, LFE Sampling rate : 48.0 KHz Bit depth : 16 bits Compression mode : Lossy Stream size : 424 MiB (12%) Language : Russian Default : Yes Forced : No

Audio #2 ID : 3 Format : AC-3 Format/Info : Audio Coding 3 Mode extension : CM (complete main) Format settings, Endianness : Big Codec ID : A_AC3 Duration : 1h 32mn Bit rate mode : Constant Bit rate : 640 Kbps Channel(s) : 6 channels Channel positions : Front: L C R, Side: L R, LFE Sampling rate : 48.0 KHz Bit depth : 16 bits Compression mode : Lossy Stream size : 424 MiB (12%) Language : French Default : No Forced : No

Menu 00:00:00.000 : en:Chapter 1 00:09:31.583 : en:Chapter 2 00:15:51.333 : en:Chapter 3 00:22:25.708 : en:Chapter 4 00:29:54.333 : en:Chapter 5 00:36:30.208 : en:Chapter 6 00:43:29.791 : en:Chapter 7 00:50:36.708 : en:Chapter 8 00:57:26.500 : en:Chapter 9 01:04:12.333 : en:Chapter 10 01:14:01.833 : en:Chapter 11 01:21:59.625 : en:Chapter 12

mrutor.org

Скачать торрент Антиганг / Antigang (2015) HDRip-AVC

Информация о фильмеНазвание: Антиганг / Отряд Оригинальное название: AntigangГод выхода: 2015Жанр: боевик, драма

Режиссёр: Бенжамен РошеВ полях: Жан Рено, Элбан Ленуар, Катерина Мурино, Умар Диау, Стефи Сельма, Себастьен ЛаЛэйнн, Тьерри Нёвик, Жан-Туссен Бернард, Якоб Седергрен

О фильме: Серж Бюрен — легендарный полицейский, возглавляющий группу молодых приспешников с нетипичным подходом. И неважно, используют ли они бейсбольные биты или напрочь забывают об уставе во время показательных арестов, результат налицо. В то же время группировка смертоносных грабителей с легкостью обчищает столичные банки и ювелирные магазины. Бюрен и его подразделение попадают в непростую ситуацию: окажутся ли привычные им методы быстрого реагирования достаточными, для того чтобы остановить преступников?

Выпущено: Франция / Capture The Flag FilmsПродолжительность: 01:32:43Озвучивание: Любительское (многоголосное) [Студия "Paradox & Omskbird records"]

• Роли озвучивали: Анна Тух, Александр Дасевич, Константин Погодаев, Сергей Науменко, Паевл Ярощик и Давид Бродский• Перевод: Екатерина Кузнецова

• Примечание: Релиз без рекламы.

ФайлФормат: MKVКачество: HDRip-AVCВидео: MPEG-4 AVC, ~1792 kb/s, 1016x424Аудио: AC3, 448 kb/s (6 ch)

M/I

General Unique ID : 239292215964242497588669495257097966447 (0xB406012190F97F40B8F24D3CE272136F) Complete name : F:FILMSНОВЫЕАнтиганг.(2015).HDRIP_AVC.[-=DoMiNo=-].mkv Format : Matroska Format version : Version 4 / Version 2 File size : 1.45 GiB Duration : 1h 32mn Overall bit rate : 2 241 Kbps Movie name : Антиганг Writing application : XviD4PSP 7.0.197 Writing library : Lavf56.40.101 / Lavf56.40.101 Attachements : cover.png ACTORS : Жан Рено, Элбан Ленуар, Катерина Мурино, Умар Диау, Стефи Сельма, Себастьен ЛаЛэйнн, Тьерри Нёвик, Жан-Туссен Бернард, Якоб Седергрен, Esther Koziol, показать всех COUNTRY : Франция DATE : 2015 DIRECTOR : Бенжамен Роше ENCODING_INFO : MATROSKA,WEBM > MKV / h364 > X264 VBR-2P 1792kbps Custom / AC3 > AC3 CBR 448kbps GENRE : боевик, драмаIMDB_RATING : 5.70 ITUNEXTC : ru-movie|16+|375| ORIGINAL_TITLE : Antigang PRODUCER : Henri Debeurme, Тьерри Демишель, Аллан Нибло RATING : 6.968 SYNOPSIS : Серж Бюрен — легендарный полицейский, возглавляющий группу молодых приспешников с нетипичным подходом. И неважно, используют ли они бейсбольные биты или напрочь забывают об уставе во время показательных арестов, результат налицо. В то же время группировка смертоносных грабителей с легкостью обчищает столичные банки и ювелирные магазины. Бюрен и его подразделение попадают в непростую ситуацию: окажутся ли привычные им методы быстрого реагирования достаточными, для того чтобы остановить преступников? WRITER : Франсуа Лубэр, Тристан Шулманн, Джон Ходж

Video ID : 1 Format : AVC Format/Info : Advanced Video Codec Format profile : [email protected] Format settings, CABAC : Yes Format settings, ReFrames : 12 frames Codec ID : V_MPEG4/ISO/AVC Duration : 1h 32mn Bit rate : 1 792 Kbps Width : 1 016 pixels Height : 424 pixels Display aspect ratio : 2.40:1 Frame rate mode : Constant Frame rate : 24.000 fps Color space : YUV Chroma subsampling : 4:2:0 Bit depth : 8 bits Scan type : Progressive Bits/(Pixel*Frame) : 0.173 Stream size : 1.13 GiB (78%) Writing library : x264 core 148 r2638M 7599210 Encoding settings : cabac=1 / ref=12 / deblock=1:-3:-3 / analyse=0x3:0x133 / me=umh / subme=11 / psy=1 / psy_rd=1.00:0.10 / mixed_ref=1 / me_range=32 / chroma_me=1 / trellis=2 / 8x8dct=1 / cqm=0 / deadzone=21,11 / fast_pskip=0 / chroma_qp_offset=-3 / threads=5 / lookahead_threads=1 / sliced_threads=0 / nr=0 / decimate=1 / interlaced=0 / bluray_compat=0 / constrained_intra=0 / bframes=11 / b_pyramid=2 / b_adapt=2 / b_bias=0 / direct=3 / weightb=1 / open_gop=0 / weightp=2 / keyint=240 / keyint_min=24 / scenecut=40 / intra_refresh=0 / rc=2pass / mbtree=0 / bitrate=1792 / ratetol=1.0 / qcomp=0.60 / qpmin=0 / qpmax=69 / qpstep=4 / cplxblur=20.0 / qblur=0.5 / ip_ratio=1.40 / pb_ratio=1.30 / aq=1:1.00 Language : English Default : Yes Forced : No Color range : Limited Color primaries : BT.709 Transfer characteristics : BT.709 Matrix coefficients : BT.709 DURATION : 01:32:43.209000000

Audio ID : 2 Format : AC-3 Format/Info : Audio Coding 3 Mode extension : CM (complete main) Format settings, Endianness : Big Codec ID : A_AC3 Duration : 1h 32mn Bit rate mode : Constant Bit rate : 448 Kbps Channel(s) : 6 channels Channel positions : Front: L C R, Side: L R, LFE Sampling rate : 48.0 KHz Frame rate : 31.250 fps (1536 spf) Bit depth : 32 bits Compression mode : Lossy Delay relative to video : 27ms Stream size : 297 MiB (20%) Language : Russian Default : Yes Forced : No DURATION : 01:32:43.227000000

Menu 00:00:00.000 : :Chapter 1 00:09:31.583 : :Chapter 2 00:15:51.333 : :Chapter 3 00:22:25.708 : :Chapter 4 00:29:54.333 : :Chapter 5 00:36:30.208 : :Chapter 6 00:43:29.791 : :Chapter 7 00:50:36.708 : :Chapter 8 00:57:26.500 : :Chapter 9 01:04:12.333 : :Chapter 10 01:14:01.833 : :Chapter 11 01:21:59.625 : :Chapter 12

krutor.org

" / / Antigang [2015 / , / BDRip 720p] MVO+SUB" - Rusbitor.ru

: 2015: : Capture The Flag Films: , : 01:32:43: [Paradox & Omskbird records]C: ,

:

/ Benjamin Rocher

, , , , , ͸ - ,

- , . , , . . : , ?

4 2016, Top Film Distribution

: BDRip 720p: MKV : x264 : DTS: 1280 x 534 (2.40:1) / AVC [email protected] / 24.000 fps / 3 763 kbps 1: 48 KHz / DTS, 3/2 (L,C,R,l,r) + LFE ch / 1509 Kbps - MVO Russian 2: 48 KHz / DTS, 3/2 (L,C,R,l,r) + LFE ch / 1509 Kbps - Original FrenchC: ,

:

<img src="http://s004.radikal.ru/i205/1512/95/c90e355a9cd0.png" alt="http://s004.radikal.ru/i205/1512/95/c90e355a9cd0.png" title="http://s004.radikal.ru/i205/1512/95/c90e355a9cd0.png" /><br /> <br /> <img src="http://s018.radikal.ru/i517/1512/9c/f0145c398390.png" alt="http://s018.radikal.ru/i517/1512/9c/f0145c398390.png" title="http://s018.radikal.ru/i517/1512/9c/f0145c398390.png" /><br /> <br /> <img src="http://s003.radikal.ru/i204/1512/79/27aa4dde0d38.png" alt="http://s003.radikal.ru/i204/1512/79/27aa4dde0d38.png" title="http://s003.radikal.ru/i204/1512/79/27aa4dde0d38.png" />

Media Info

<br /> : D:\Distr\Ant1GANG.2015.P.BDRip.72OP_PARADOX_OMSKBIRD.mkv<br /> : Ant1GANG.2015.P.BDRip.72OP_PARADOX_OMSKBIRD.mkv<br /> : .mkv (Matroska)<br /> : 4.48 GB<br /> : 1h 32mn<br /> : <br /> ( ): 6 918 Kbps<br /> ...: UTC 2015-12-30 14:23:42<br /> ... : mkvmerge v8.3.0 ('Over the Horizon') 64bit<br /> ... : libebml v1.3.1 + libmatroska v1.4.2<br /> <br /> : Ant1GANG.2015.P.BDRip.72OP_PARADOX_OMSKBIRD<br /> <br /> : <br /> : 01:32:43<br /> : AVC<br /> /: Advanced Video Codec<br /> /: [email protected]<br /> /ID: V_MPEG4/ISO/AVC<br /> /CABAC: Yes<br /> /ReFrames: 12 frames<br /> : 1280 x 534 (2.40:1)<br /> : 24.000 fps<br /> /: Constant<br /> : 2.44 GiB (54%)<br /> : 3 763 Kbps<br /> : x264 core 148 r2638 7599210<br /> : YUV<br /> : Progressive<br /> : 8 bits<br /> : cabac=1 / ref=12 / deblock=1:-3:-3 / analyse=0x3:0x133 / me=umh / subme=11 / psy=1 / psy_rd=0.99:0.05 / mixed_ref=1 / me_range=64 / chroma_me=1 / trellis=2 / 8x8dct=1 / cqm=0 / deadzone=6,6 / fast_pskip=0 / chroma_qp_offset=-3 / threads=6 / lookahead_threads=1 / sliced_threads=0 / nr=0 / decimate=0 / interlaced=0 / bluray_compat=0 / constrained_intra=0 / bframes=8 / b_pyramid=2 / b_adapt=2 / b_bias=0 / direct=3 / weightb=1 / open_gop=1 / weightp=2 / keyint=250 / keyint_min=24 / scenecut=40 / intra_refresh=0 / rc_lookahead=250 / rc=crf / mbtree=1 / crf=16.7 / qcomp=0.60 / qpmin=0 / qpmax=69 / qpstep=4 / vbv_maxrate=50000 / vbv_bufsize=50000 / crf_max=0.0 / nal_hrd=none / filler=0 / ip_ratio=1.40 / aq=2:1.00<br /> <br /> : #1<br /> : Russian<br /> : 01:32:43.211<br /> : DTS<br /> /: Digital Theater Systems<br /> /ID: A_DTS<br /> : 48.0 KHz<br /> : 6 channels<br /> : 1 509 Kbps<br /> /: Constant<br /> : 1 001 MiB (22%)<br /> : 16 bits<br /> : Lossy<br /> <br /> : #2<br /> : French<br /> : 01:32:43.211<br /> : DTS<br /> /: Digital Theater Systems<br /> /ID: A_DTS<br /> : 48.0 KHz<br /> : 6 channels<br /> : 1 509 Kbps<br /> /: Constant<br /> : 1 001 MiB (22%)<br /> : 16 bits<br /> : Lossy<br /> <br /> : #1<br /> : Russian<br /> : UTF-8<br /> /: UTF-8 Plain Text<br /> <br /> : #2<br /> : PGS<br /> /: The same subtitle format used on BDs/HD-DVDs<br /> : French SDH [PGS]

,

/ / Antigang [2015 / , / BDRip 720p] MVO+SUB . .

, / / Antigang [2015 / , / BDRip 720p] MVO+SUB. .

, , , , .

C / / Antigang [2015 / , / BDRip 720p] MVO+SUB

...

   2015-12-30 20:04:31  4.48 GB (4,811,093,208 )  
       1  
   

1 | 0

 0  
 8 (a)  .torrent
  :     √     HD  

/ / Antigang [2015 / , / BDRip 720p] MVO+SUB, " ".

www.rusbitor.ru

Скачать фильм Антиганг через торрент в хорошем качестве бесплатно BDRip от Twi7ter

Раздают: 3 [ 0 KB/s ]
Размер: 1.46 GB &verbar; Добавлен: 1 год 9 мес. назад &verbar; Торрент скачан:1899 раз
Реклама Дарим 3000 рублей за регистрацию, не упусти свой шанс получить шикарный бонус!!!

02-01-2016 09:45 Антиганг Скачать торрент  

Антиганг / Отряд / Antigang

Год выпуска: 2015Страна: ФранцияЖанр: боевик, драмаПродолжительность: 01:32:43Перевод: Любительский (многоголосый) [Студия "Paradox & Omskbird records"]Субтитры: НетРежиссер: Бенжамен Роше / Benjamin RocherВ ролях: Жан Рено (Serge Buren), Элбан Ленуар (Cartier), Катерина Мурино (Margaux), Умар Диау (Manu), Стефи Сельма (Ricci), Себастьен ЛаЛэйнн (Genoves), Тьерри Нёвик (Becker), Жан-Туссен Бернард (Boulez), Якоб Седергрен (Kasper), Esther Koziol, Джесс Лиодин (Waked), Стивен Скардиккьо (Fedor)Описание: Серж Бюрен - легендарный полицейский, возглавляющий группу молодых приспешников с нетипичным подходом. И неважно, используют ли они бейсбольные биты или напрочь забывают об уставе во время показательных арестов, результат налицо. В то же время группировка смертоносных грабителей с легкостью обчищает столичные банки и ювелирные магазины. Бюрен и его подразделение попадают в непростую ситуацию: окажутся ли привычные им методы быстрого реагирования достаточными, для того чтобы остановить преступников?Рейтинг:

Качество: BDRip | исх. Antigang 2015 Blu-Ray Remux 1080p |Формат: AVIВидео кодек: XviDАудио кодек: AC3Видео: 720x304 (2.37:1), 24 fps, XviD build 50 ~1799 kbps avg, 0.34 bit/pixelАудио: 48 kHz, AC3 Dolby Digital, 3/2 (L,C,R,l,r) + LFE ch, ~448 kbps

Релиз: & MegaPeer

Скачать Антиганг через торрент http://s019.radikal.ru/i628/1601/5c/c36c952d0111.png Скачать фильм Антиганг через торрент бесплантно в хорошем качестве Описание: Серж Бюрен - легендарный полицейский, возглавляющий группу молодых приспешников с неичным подходом. И неважно, используют ли ... 2016-01-02 09:45 9.7 10 49

Loading...

Loading...

Рекламный пират

02-01-2016 12:25 Антиганг Скачать торрент  

Шикарный боевик на фоне того что нету крепкого орешка и так далее боевик очень интересно зрелищно правдоподобно поставлены боевые сцены драк на стрельбу как то пофигу в кал оф дюти настрелялся))

02-01-2016 15:06 Антиганг Скачать торрент  

уболтал чертяга языкастый, тоже скачаю

02-01-2016 22:16 Антиганг Скачать торрент  

Жан Рено, он такой Жан Рено. Глянем обязательно

03-01-2016 10:38 Антиганг Скачать торрент  

MEXAHUK66 писал(а):

Шикарный боевик на фоне того что нету крепкого орешка и так далее боевик очень интересно зрелищно правдоподобно поставлены боевые сцены драк на стрельбу как то пофигу в кал оф дюти настрелялся))

Блин,надо глянуть!

04-01-2016 10:20 Антиганг Скачать торрент  

На удивление не плохой фильмец.

27-01-2016 20:05 Антиганг Скачать торрент  

Рено не слышно совсем из за тихой хриплой озвучки. подожду другой, получше

Дорогой пользователь! Огромная просьба, поблагодарите релизера, оцените раздачу и оставьте свои комментарий, если Вы скачали Антиганг через торрент бесплатно! Внесите свою лепту в развитие PiratBit!

Комментировать посты могут только пользователи прошедшие не сложную регистрацию

Антиганг через торрент Скачать бесплатно Антиганг Антиганг скачать торрент Антиганг смотреть онлайн Cкачать фильм Антиганг бесплатно Антиганг скачать торрент в хорошем качестве Антиганг смотреть онлайн бесплатно в хорошем качестве

Вы можете начинать темыВы можете отвечать на сообщенияВы не можете редактировать свои сообщенияВы не можете удалять свои сообщенияВы не можете голосовать в опросахВы не можете прикреплять файлы к сообщениямВы можете скачивать файлы

piratbit.ru

Скачать фильм Антиганг через торрент в хорошем качестве бесплатно BDRip от Twi7ter

Раздают: 5 [ 18 KB/s ]
Размер: 1.42 GB &verbar; Добавлен: 1 год 8 мес. назад &verbar; Торрент скачан:2599 раз
Реклама Дарим 3000 рублей за регистрацию, не упусти свой шанс получить шикарный бонус!!!

06-02-2016 14:07 Антиганг Скачать торрент  

Антиганг / Отряд / Antigang

Год выпуска: 2015Страна: ФранцияЖанр: боевик, драмаПродолжительность: 01:32:43Перевод: Профессиональный (полное дублирование) [Чистый звук]Субтитры: НетРежиссер: Бенжамен Роше / Benjamin RocherВ ролях: Жан Рено (Serge Buren), Элбан Ленуар (Cartier), Катерина Мурино (Margaux), Умар Диау (Manu), Стефи Сельма (Ricci), Себастьен ЛаЛэйнн (Genoves), Тьерри Нёвик (Becker), Жан-Туссен Бернард (Boulez), Якоб Седергрен (Kasper), Esther Koziol, Джесс Лиодин (Waked), Стивен Скардиккьо (Fedor)Описание: Серж Бюрен - легендарный полицейский, возглавляющий группу молодых приспешников с нетипичным подходом. И неважно, используют ли они бейсбольные биты или напрочь забывают об уставе во время показательных арестов, результат налицо. В то же время группировка смертоносных грабителей с легкостью обчищает столичные банки и ювелирные магазины. Бюрен и его подразделение попадают в непростую ситуацию: окажутся ли привычные им методы быстрого реагирования достаточными, для того чтобы остановить преступников?Рейтинг:

Качество: BDRip | исх. Antigang 2015 Blu-Ray Remux 1080p |Формат: AVIВидео кодек: XviDАудио кодек: AC3Видео: 720x304 (2.37:1), 24 fps, XviD build 50 ~1799 kbps avg, 0.34 bit/pixelАудио: 48 kHz, AC3 Dolby Digital, 2/0 (L,R) ch, ~384 kbps

Релиз:

Скачать Антиганг через торрент http://s019.radikal.ru/i636/1602/54/1e683f44cef0.png Скачать фильм Антиганг через торрент бесплантно в хорошем качестве Описание: Серж Бюрен - легендарный полицейский, возглавляющий группу молодых приспешников с неичным подходом. И неважно, используют ли ... 2016-02-06 14:07 9.4 10 53

Loading...

Loading...

Рекламный пират

06-02-2016 14:13 Антиганг Скачать торрент  

Рип без всякой рекламы и прочей гадости!

06-02-2016 14:38 Антиганг Скачать торрент  

Опаньки дождались бубляж,спасибо

06-02-2016 15:19 Антиганг Скачать торрент  

06-02-2016 15:27 Антиганг Скачать торрент  

07-02-2016 11:27 Антиганг Скачать торрент  

Забираю, хотя кинопоиск не в восторге)

07-02-2016 14:23 Антиганг Скачать торрент  

ниче фильм на один раз, больше несоветую

07-02-2016 20:51 Антиганг Скачать торрент  

Фильм зачет. Смотреть можно. Сюжет интересный. Рено еще нормально играет и не скатился в полное УГ, как большая чать уже пожилых актеров.

08-02-2016 14:51 Антиганг Скачать торрент  

Сказка для детей, так скажем до 13 лет.

Pекламный агент PB

09-02-2016 11:40 Антиганг Скачать торрент  

Спасибо, посмотрю )

10-02-2016 13:08 Антиганг Скачать торрент  

15-02-2016 11:48 Антиганг Скачать торрент  

Спасибо на разок пойдет) под пиво)

Дорогой пользователь! Огромная просьба, поблагодарите релизера, оцените раздачу и оставьте свои комментарий, если Вы скачали Антиганг через торрент бесплатно! Внесите свою лепту в развитие PiratBit!

Комментировать посты могут только пользователи прошедшие не сложную регистрацию

Антиганг через торрент Скачать бесплатно Антиганг Антиганг скачать торрент Антиганг смотреть онлайн Cкачать фильм Антиганг бесплатно Антиганг скачать торрент в хорошем качестве Антиганг смотреть онлайн бесплатно в хорошем качестве

Вы не можете начинать темыВы не можете отвечать на сообщенияВы не можете редактировать свои сообщенияВы не можете удалять свои сообщенияВы не можете голосовать в опросахВы не можете прикреплять файлы к сообщениямВы можете скачивать файлы

piratbit.ru

Скачать фильм Антиганг через торрент в хорошем качестве бесплатно 1080p

GeneralUnique ID                                : 240245819699339683240762794270181751635 (0xB4BDA96CDB7C0AD08F81CDA53482FB53)Complete name                            : G:\Ant1GANG.2015.P.BDRip.1O8OP_PARADOX_OMSKBIRD.mkvFormat                                   : MatroskaFormat version                           : Version 2File size                                : 11.2 GiBDuration                                 : 1h 32mnOverall bit rate                         : 17.3 MbpsEncoded date                             : UTC 2015-12-30 14:31:06Writing application                      : mkvmerge v8.3.0 ('Over the Horizon') 64bitWriting library                          : libebml v1.3.1 + libmatroska v1.4.2DURATION                                 : 01:32:19.208000000NUMBER_OF_FRAMES                         : 1988NUMBER_OF_BYTES                          : 5986409_STATISTICS_WRITING_APP                  : mkvmerge v8.3.0 ('Over the Horizon') 64bit_STATISTICS_WRITING_DATE_UTC             : 2015-12-30 14:31:06_STATISTICS_TAGS                         : BPS DURATION NUMBER_OF_FRAMES NUMBER_OF_BYTES

VideoID                                       : 1Format                                   : AVCFormat/Info                              : Advanced Video CodecFormat profile                           : [email protected] settings, CABAC                   : YesFormat settings, ReFrames                : 5 framesCodec ID                                 : V_MPEG4/ISO/AVCDuration                                 : 1h 32mnBit rate                                 : 13.9 MbpsWidth                                    : 1 920 pixelsHeight                                   : 800 pixelsDisplay aspect ratio                     : 2.40:1Frame rate                               : 24.000 fpsColor space                              : YUVChroma subsampling                       : 4:2:0Bit depth                                : 8 bitsScan type                                : ProgressiveBits/(Pixel*Frame)                       : 0.378Stream size                              : 9.03 GiB (81%)Writing library                          : x264 core 148 r2638 7599210Encoding settings                        : cabac=1 / ref=5 / deblock=1:-3:-3 / analyse=0x3:0x133 / me=umh / subme=11 / psy=1 / psy_rd=0.99:0.05 / mixed_ref=1 / me_range=64 / chroma_me=1 / trellis=2 / 8x8dct=1 / cqm=0 / deadzone=6,6 / fast_pskip=0 / chroma_qp_offset=-3 / threads=6 / lookahead_threads=1 / sliced_threads=0 / nr=0 / decimate=0 / interlaced=0 / bluray_compat=0 / constrained_intra=0 / bframes=8 / b_pyramid=2 / b_adapt=2 / b_bias=0 / direct=3 / weightb=1 / open_gop=1 / weightp=2 / keyint=250 / keyint_min=24 / scenecut=40 / intra_refresh=0 / rc_lookahead=250 / rc=crf / mbtree=1 / crf=15.9 / qcomp=0.60 / qpmin=0 / qpmax=69 / qpstep=4 / vbv_maxrate=50000 / vbv_bufsize=50000 / crf_max=0.0 / nal_hrd=none / filler=0 / ip_ratio=1.40 / aq=2:1.00Language                                 : EnglishDefault                                  : YesForced                                   : NoDURATION                                 : 01:32:43.209000000NUMBER_OF_FRAMES                         : 133517NUMBER_OF_BYTES                          : 9928056421_STATISTICS_WRITING_APP                  : mkvmerge v8.3.0 ('Over the Horizon') 64bit_STATISTICS_WRITING_DATE_UTC             : 2015-12-30 14:31:06_STATISTICS_TAGS                         : BPS DURATION NUMBER_OF_FRAMES NUMBER_OF_BYTESColor primaries                          : BT.709-5, BT.1361, IEC 61966-2-4, SMPTE RP177Transfer characteristics                 : BT.709-5, BT.1361Matrix coefficients                      : BT.709-5, BT.1361, IEC 61966-2-4 709, SMPTE RP177

Audio #1ID                                       : 2Format                                   : DTSFormat/Info                              : Digital Theater SystemsCodec ID                                 : A_DTSDuration                                 : 1h 32mnBit rate mode                            : ConstantBit rate                                 : 1 510 KbpsChannel(s)                               : 6 channelsChannel positions                        : Front: L C R, Side: L R, LFESampling rate                            : 48.0 KHzBit depth                                : 16 bitsCompression mode                         : LossyStream size                              : 1 001 MiB (9%)Language                                 : RussianDefault                                  : YesForced                                   : No

Audio #2ID                                       : 3Format                                   : DTSFormat/Info                              : Digital Theater SystemsCodec ID                                 : A_DTSDuration                                 : 1h 32mnBit rate mode                            : ConstantBit rate                                 : 1 510 KbpsChannel(s)                               : 6 channelsChannel positions                        : Front: L C R, Side: L R, LFESampling rate                            : 48.0 KHzBit depth                                : 16 bitsCompression mode                         : LossyStream size                              : 1 001 MiB (9%)Language                                 : FrenchDefault                                  : NoForced                                   : No

Text #1ID                                       : 4Format                                   : UTF-8Codec ID                                 : S_TEXT/UTF8Codec ID/Info                            : UTF-8 Plain TextLanguage                                 : RussianDefault                                  : YesForced                                   : No

Text #2ID                                       : 5Format                                   : PGSMuxing mode                              : zlibCodec ID                                 : S_HDMV/PGSCodec ID/Info                            : The same subtitle format used on BDs/HD-DVDsTitle                                    : French SDH [PGS]Default                                  : NoForced                                   : No

Menu00:00:00.000                             : en:Chapter 100:09:31.583                             : en:Chapter 200:15:51.333                             : en:Chapter 300:22:25.708                             : en:Chapter 400:29:54.333                             : en:Chapter 500:36:30.208                             : en:Chapter 600:43:29.791                             : en:Chapter 700:50:36.708                             : en:Chapter 800:57:26.500                             : en:Chapter 901:04:12.333                             : en:Chapter 1001:14:01.833                             : en:Chapter 1101:21:59.625                             : en:Chapter 12

piratbit.ru

Скачать торрент Антиганг / Отряд / Antigang (2015) DVD-9

Информация о фильмеНазвание: Антиганг / ОтрядОригинальное название: Antigang Год выхода: 2015Жанр: Боевик, драмаРежиссер: Бенжамен Роше В ролях: Жан Рено, Элбан Ленуар, Катерина Мурино, Умар Диау, Стефи Сельма, Себастьен ЛаЛэйнн, Тьерри Нёвик, Жан-Туссен Бернард, Якоб Седергрен, Эстер Козёль О фильме: Серж Бюрен — легендарный полицейский, возглавляющий группу молодых приспешников с нетипичным подходом. И неважно, используют ли они бейсбольные биты или напрочь забывают об уставе во время показательных арестов, результат налицо. В то же время группировка смертоносных грабителей с легкостью обчищает столичные банки и ювелирные магазины. Бюрен и его подразделение попадают в непростую ситуацию: окажутся ли привычные им методы быстрого реагирования достаточными, для того чтобы остановить преступников?

Продолжительность: Перевод: Дублированны, профессиональный многоголосыйФайлКодек: MPEG-2Качество: DVD-9Видео: MPEG2, NTSC 16:9 ([email protected]) VBR, 23,976 кадров/секЗвук: Русский, Французский DD 5.1 (384 Kbps)

Меню

DVDInfo

Title: Size: 4.80 Gb ( 5 032 418 KBytes ) - DVD-9 Enabled regions: 1, 2, 3, 4, 5, 6, 7, 8

VTS_01 : Play Length: 01:32:37 Video: NTSC 16:9 (720x480) VBR, Auto Pan&Scan Audio: Russian (Dolby AC3, 6 ch) Russian (Dolby AC3, 6 ch) Francais (Dolby AC3, 6 ch)

Menu Video: NTSC 4:3 (704x480) VBR Menu English Language Unit : Root Menu

MediaInfo

Общее Полное имя : D:ААА2АНТИГАНГVIDEO_TSVTS_01_1.VOB Формат : MPEG-PS Размер файла : 1000 Мбайт Продолжительность : 18 м. Режим общего битрейта : Переменный Общий поток : 7394 Кбит/сек

Видео Идентификатор : 224 (0xE0) Формат : MPEG Video Версия формата : Version 2 Профиль формата : [email protected] Параметр BVOP формата : Да Параметр матрицы формата : По умолчанию Параметр GOP формата : M=3, N=12 Продолжительность : 18 м. Вид битрейта : Переменный Битрейт : 6095 Кбит/сек Максимальный битрейт : 8312 Кбит/сек Ширина : 720 пикселей Высота : 480 пикселей Соотношение сторон : 16:9 Частота кадров : 23,976 кадра/сек Стандарт вещания : NTSC Цветовое пространство : YUV Субдискретизация насыщенности : 4:2:0 Битовая глубина : 8 бит Тип развёртки : Прогрессивная Порядок развёртки : 2:3 Pulldown Метод сжатия : С потерями Бит/(Пиксели*Кадры) : 0.736 TimeCode_FirstFrame : 00:00:00;00 TimeCode_Source : Group of pictures header Размер потока : 825 Мбайт (82%)

Аудио #1 Идентификатор : 189 (0xBD)-128 (0x80) Формат : AC-3 Формат/Информация : Audio Coding 3 Расширение режима : CM (complete main) Параметр Endianness формата : Big Режим смешивания : DVD-Video Продолжительность : 18 м. Вид битрейта : Постоянный Битрейт : 384 Кбит/сек Каналы : 6 каналов Расположение каналов : Front: L C R, Side: L R, LFE Частота : 48,0 КГц Битовая глубина : 16 бит Метод сжатия : С потерями Размер потока : 51,9 Мбайт (5%)

Аудио #2 Идентификатор : 189 (0xBD)-129 (0x81) Формат : AC-3 Формат/Информация : Audio Coding 3 Расширение режима : CM (complete main) Параметр Endianness формата : Big Режим смешивания : DVD-Video Продолжительность : 18 м. Вид битрейта : Постоянный Битрейт : 384 Кбит/сек Каналы : 6 каналов Расположение каналов : Front: L C R, Side: L R, LFE Частота : 48,0 КГц Битовая глубина : 16 бит Метод сжатия : С потерями Размер потока : 51,9 Мбайт (5%)

Аудио #3 Идентификатор : 189 (0xBD)-130 (0x82) Формат : AC-3 Формат/Информация : Audio Coding 3 Расширение режима : CM (complete main) Параметр Endianness формата : Big Режим смешивания : DVD-Video Продолжительность : 18 м. Вид битрейта : Постоянный Битрейт : 384 Кбит/сек Каналы : 6 каналов Расположение каналов : Front: L C R, Side: L R, LFE Частота : 48,0 КГц Битовая глубина : 16 бит Метод сжатия : С потерями Размер потока : 51,9 Мбайт (5%)

Меню

Релиз:

krutor.org


Смотрите также