Очень плохие девчонки скачать бесплатно


2017 hd 720, 1080

!

: : Rough Night : 2017: : : , , , , , , , , ,

:" " , . , , . , , , .

, , . . , . . . . , , .

: : - : | iTunes: BDRip

3013

609

udp://shubt.net:2710

86 76 68

udp://bt.megapeer.org:6969

38 36 30

udp://kaztorka.org:2710

10 38 88

http://tracker.filetracker.pl:8089/announce

21 40 96

http://tracker2.wasabii.com.tw:6969/announce

17 30 25

http://tracker.grepler.com:6969/announce

16 76 58

http://125.227.35.196:6969/announce

96 15 52

http://tracker.tiny-vps.com:6969/announce

84 24 76

http://87.248.186.252:8080/announce

17 1 1

http://210.244.71.25:6969/announce

2364 31 26326

http://46.4.109.148:6969/announce

56 61 47

udp://46.148.18.250:2710

37 98 43

http://tracker.dler.org:6969/announce

15 27 14

udp://[2001:67c:28f8:92::1111:1]:2710

96 32 59

udp://ipv6.leechers-paradise.org:6969

60 24 83

1,42 Gb

1994

Rough.Night.2017.BDRip.1.41Gb.MegaPeer (2 )

Rough.Night.2017.BDRip.1.41Gb.MegaPeer.avi (1,42 Gb) Rough.Night.2017.BDRip.1.41Gb.MegaPeer.srt (370 b)

1033

524

udp://shubt.net:2710

86 34 54

http://tracker.filetracker.pl:8089/announce

94 47 38

http://tracker2.wasabii.com.tw:6969/announce

84 27 83

http://tracker.grepler.com:6969/announce

59 31 21

http://125.227.35.196:6969/announce

37 37 40

http://tracker.tiny-vps.com:6969/announce

45 61 43

http://87.248.186.252:8080/announce

7 68 59

http://210.244.71.25:6969/announce

372 4 2236

http://46.4.109.148:6969/announce

23 16 85

udp://46.148.18.250:2710

50 24 73

http://tracker.dler.org:6969/announce

52 70 75

udp://[2001:67c:28f8:92::1111:1]:2710

94 38 17

udp://ipv6.leechers-paradise.org:6969

30 67 23

5,56 Gb

204

Rough Night.2017.BDRip.720p.mkv (5,56 Gb)

771

821

udp://shubt.net:2710

30 47 31

http://tracker.filetracker.pl:8089/announce

11 79 61

http://tracker2.wasabii.com.tw:6969/announce

78 71 93

http://tracker.grepler.com:6969/announce

39 51 31

http://125.227.35.196:6969/announce

98 99 40

http://tracker.tiny-vps.com:6969/announce

45 77 32

http://87.248.186.252:8080/announce

3 81 37

http://210.244.71.25:6969/announce

200 13 254

http://46.4.109.148:6969/announce

18 99 23

udp://46.148.18.250:2710

70 29 68

http://tracker.dler.org:6969/announce

85 18 69

udp://[2001:67c:28f8:92::1111:1]:2710

29 57 15

udp://ipv6.leechers-paradise.org:6969

65 100 32

11,01 Gb

89

Rough Night.2017.BDRip.1080p.mkv (11,01 Gb)

vtorrents.net

Очень плохие девчонки через торрент

Раздают: 115 [ 182 KB/s ] Качают: 2 [ 154 KB/s ]
Размер: 1.46 GB | Добавлен: 27 д. назад | Торрент скачан:376 раз
Реклама Дарим 3000 рублей за регистрацию, не упусти свой шанс получить шикарный бонус!!!

27-08-2017 09:15 Очень плохие девчонки Скачать торрент  

Очень плохие девчонки / Rough Night

«Подруга подкинула проблем»

Год выпуска: 2017Страна: США / Paulilu Productions, Sony Pictures Entertainment (SPE)Жанр: комедияПродолжительность: 01:40:50Перевод: Профессиональный (полное дублирование) [Лицензия]Субтитры: Русские форсированные (на надписи) - вшитыеРежиссер: Люсия Аньелло / Lucia AnielloВ ролях: Скарлетт Йоханссон, Джиллиан Белл, Зои Кравиц, Илана Глейзер, Кейт МакКиннон, Пол В. Даунс, Райан Купер, Тай Буррелл, Деми Мур, Энрике МурсианоОписание: Что может омрачить развеселый и безбашенный девичник в Майами? Наверное, только нелепая смерть стриптизера. Теперь подружкам предстоит выпутаться из дурацкой истории и как-то замести следы, пока они не попали в руки к копам.Рейтинг: Качество: BDRip | исх. Rough.Night.2017.BD.Remux |Формат: AVIВидео кодек: XviDАудио кодек: AC3Видео: 720x304 (2.37:1), 23.976 fps, XviD build 73 ~1617 kbps avg, 0.31 bit/pixelАудио: 48 kHz, AC3 Dolby Digital, 3/2 (L,C,R,l,r) + LFE ch, ~448 kbps           

Релиз: &

Скачать Очень плохие девчонки через торрент http://s018.radikal.ru/i524/1708/07/f16ba2c88ae5.png Скачать фильм Очень плохие девчонки через торрент бесплантно в хорошем качестве Описание: Что может омрачить развеселый и безбашенный девичник в Майами? Наверное, только нелепая смерть стриптизера. Теперь подружкам ... 2017-09-29 04:29 9.3 10 27

Loading...

Loading...

% Раздел Тема Автор DL S | L
Фильмы [HD 720p, 1080p] (Хороший звук DUB, MVO) [ 9.76 GB ] Очень плохие девчонки / Rough Night [2017 BDRip 1080p] DUB [ Blu-ray CEE] bober100 Скачать
Фильмы (Blu-ray, BD-Remux, HDDVD) [ 32.14 GB ] Очень плохие девчонки / Rough Night [2017 Blu-ray CEE 1080p] DUB [] bober100 Скачать
Фильмы 2017 [DVDrip, WEB-DLRip, HDrip] (DUB, MVO) [ 1.82 GB ] Очень плохие девчонки / Rough Night [2017 BDRip-AVC] DUB [ Blu-ray CEE] bober100 Скачать
Фильмы [HD 720p, 1080p] (Хороший звук DUB, MVO) [ 5.56 GB ] Очень плохие девчонки / Rough Night [2017 BDRip 720p] bober100 Скачать
Фильмы 2017 [DVDrip, WEB-DLRip, HDrip] (DUB, MVO) [ 1.91 GB ] Очень плохие девчонки / Rough Night [2017 BDRip-AVC] 2xDUB bober100 Скачать
Фильмы 2017 [DVDrip, WEB-DLRip, HDrip] (DUB, MVO) [ 1.43 GB ] Очень плохие девчонки / Rough Night [2017 BDRip-AVC] Generalfilm White Smoke Скачать
Фильмы 2017 [DVDrip, WEB-DLRip, HDrip] (DUB, MVO) [ 1.42 GB ] Очень плохие девчонки / Rough Night [2017 BDRip] bober100 Скачать

Последний раз редактировалось: Twi7ter (2017-09-29 08:09), всего редактировалось 1 раз

Рекламный пират

29-09-2017 05:52 Очень плохие девчонки Скачать торрент  

Замена на лицензию.

08-10-2017 04:57 Очень плохие девчонки Скачать торрент  

ссылка на кинопоиск ведет на другой фильм

Дорогой пользователь! Огромная просьба, поблагодарите релизера, оцените раздачу и оставьте свои комментарий, если Вы скачали Очень плохие девчонки через торрент бесплатно! Внесите свою лепту в развитие PiratBit!

Комментировать посты могут только пользователи прошедшие не сложную регистрацию

Очень плохие девчонки через торрент Скачать бесплатно Очень плохие девчонки Очень плохие девчонки скачать торрент Очень плохие девчонки смотреть онлайн Cкачать фильм Очень плохие девчонки бесплатно Очень плохие девчонки скачать торрент в хорошем качестве Очень плохие девчонки смотреть онлайн бесплатно в хорошем качестве

Вы не можете начинать темыВы не можете отвечать на сообщенияВы не можете редактировать свои сообщенияВы не можете удалять свои сообщенияВы не можете голосовать в опросахВы не можете прикреплять файлы к сообщениямВы можете скачивать файлы

piratbit.ru

Очень плохие девчонки через торрент

ОбщееУникальный идентификатор : 176417699060093191884229073136679825344 (0x84B8D01C70DB94C6B7D4254D9712AFC0)Полное имя : E:OlLanDGroupRough.Night.2017.BDRip(AVC).OlLanDGroup.mkvФормат : MatroskaВерсия формата : Version 2Размер файла : 1,82 ГбайтПродолжительность : 1 ч. 40 м.Общий поток : 2581 Кбит/секНазвание фильма : Rough.Night.2017 - TorpedoUKДата кодирования : UTC 2017-09-29 04:00:31Программа кодирования : mkvmerge v7.8.0 ('River Man') 32bit built on Apr 3 2015 12:11:22Библиотека кодирования : libebml v1.3.1 + libmatroska v1.4.2Обложка : YesAttachments : cover_land.jpg / small_cover.jpg / small_cover_land.jpg / cover.jpg

ВидеоИдентификатор : 1Формат : AVCФормат/Информация : Advanced Video CodecПрофиль формата : [email protected]Параметр CABAC формата : ДаПараметр ReFrames формата : 10 кадровИдентификатор кодека : V_MPEG4/ISO/AVCПродолжительность : 1 ч. 40 м.Битрейт : 1680 Кбит/секШирина : 1024 пикселяВысота : 428 пикселейСоотношение сторон : 2,40:1Режим частоты кадров : ПостоянныйЧастота кадров : 23,976 (24000/1001) кадра/секЦветовое пространство : YUVСубдискретизация насыщенности : 4:2:0Битовая глубина : 8 битТип развёртки : ПрогрессивнаяБит/(Пиксели*Кадры) : 0.160Размер потока : 1,15 Гбайт (63%)Библиотека кодирования : x264 core 146 r2538 121396cНастройки программы : cabac=1 / ref=10 / deblock=1:-3:-3 / analyse=0x3:0x133 / me=umh / subme=11 / psy=1 / psy_rd=1.00:0.07 / mixed_ref=1 / me_range=48 / chroma_me=1 / trellis=2 / 8x8dct=1 / cqm=0 / deadzone=21,11 / fast_pskip=0 / chroma_qp_offset=-3 / threads=6 / lookahead_threads=1 / sliced_threads=0 / nr=0 / decimate=0 / interlaced=0 / bluray_compat=0 / constrained_intra=0 / bframes=10 / b_pyramid=2 / b_adapt=2 / b_bias=0 / direct=3 / weightb=1 / open_gop=0 / weightp=2 / keyint=240 / keyint_min=23 / scenecut=40 / intra_refresh=0 / rc_lookahead=40 / rc=2pass / mbtree=0 / bitrate=1680 / ratetol=1.0 / qcomp=0.60 / qpmin=0 / qpmax=69 / qpstep=4 / cplxblur=20.0 / qblur=0.5 / vbv_maxrate=50000 / vbv_bufsize=62500 / nal_hrd=none / filler=0 / ip_ratio=1.40 / pb_ratio=1.30 / aq=1:1.00Язык : EnglishDefault : ДаForced : Нет

Аудио #1Идентификатор : 2Формат : AC-3Формат/Информация : Audio Coding 3Расширение режима : CM (complete main)Параметр Endianness формата : BigИдентификатор кодека : A_AC3Продолжительность : 1 ч. 40 м.Вид битрейта : ПостоянныйБитрейт : 448 Кбит/секКаналы : 6 каналовРасположение каналов : Front: L C R, Side: L R, LFEЧастота : 48,0 КГцЧастота кадров : 31,250 кадров/сек (1536 spf)Битовая глубина : 16 битМетод сжатия : С потерямиРазмер потока : 323 Мбайт (17%)Заголовок : LicenseЯзык : RussianDefault : ДаForced : Нет

Аудио #2Идентификатор : 3Формат : AC-3Формат/Информация : Audio Coding 3Расширение режима : CM (complete main)Параметр Endianness формата : BigИдентификатор кодека : A_AC3Продолжительность : 1 ч. 40 м.Вид битрейта : ПостоянныйБитрейт : 448 Кбит/секКаналы : 6 каналовРасположение каналов : Front: L C R, Side: L R, LFEЧастота : 48,0 КГцЧастота кадров : 31,250 кадров/сек (1536 spf)Битовая глубина : 16 битМетод сжатия : С потерямиРазмер потока : 323 Мбайт (17%)Заголовок : OriginalЯзык : EnglishDefault : НетForced : Нет

Текст #1Идентификатор : 4Формат : UTF-8Идентификатор кодека : S_TEXT/UTF8Идентификатор кодека/Информация : UTF-8 Plain TextЗаголовок : ForcedЯзык : RussianDefault : ДаForced : Нет

Текст #2Идентификатор : 5Формат : UTF-8Идентификатор кодека : S_TEXT/UTF8Идентификатор кодека/Информация : UTF-8 Plain TextЯзык : RussianDefault : НетForced : Нет

Текст #3Идентификатор : 6Формат : UTF-8Идентификатор кодека : S_TEXT/UTF8Идентификатор кодека/Информация : UTF-8 Plain TextЯзык : EnglishDefault : НетForced : Нет

Текст #4Идентификатор : 7Формат : UTF-8Идентификатор кодека : S_TEXT/UTF8Идентификатор кодека/Информация : UTF-8 Plain TextЗаголовок : SDHЯзык : EnglishDefault : НетForced : Нет

Меню00:00:00.000 : en:Chapter 0100:04:44.117 : en:Chapter 0200:08:05.276 : en:Chapter 0300:15:19.209 : en:Chapter 0400:25:46.294 : en:Chapter 0500:34:27.023 : en:Chapter 0600:39:51.097 : en:Chapter 0700:43:10.963 : en:Chapter 0800:46:26.617 : en:Chapter 0900:49:09.529 : en:Chapter 1000:53:44.471 : en:Chapter 1100:59:37.657 : en:Chapter 1201:02:53.895 : en:Chapter 1301:11:56.645 : en:Chapter 1401:22:55.679 : en:Chapter 1501:30:57.952 : en:Chapter 16

piratbit.ru

Очень плохие девчонки скачать торрент в хорошем качестве бесплатно

Blu-Ray (hd)ПодробнееПроф. (полное дублирование)BDMV20.92 ГБскачатьПродолжительность: 01:40:50Формат: BDMVВидео кодек: AVCАудио кодек: AC3Видео:   1920x1080 at 23.976 fps, MPEG-4 AVC, ~24831 kbps avgАудио:   Аудио 1: Russian: 48 kHz, AC3, 3/2 (L,C,R,l,r) + LFE ch, ~384.00 kbps avg Аудио 2: Ukrainian: 48 kHz, AC3, 2/0 (L,R) ch, ~192.00 kbps avg Аудио 3: English: 48 kHz/16-bit, DTS-HD MA 5.1, ~1964.00 kbps avg Аудио 4: English: 48 kHz, AC3, 3/2 (L,C,R,l,r) + LFE ch, ~384.00 kbps avgBlu-Ray (hd)ПодробнееПроф. (полное дублирование)BDMV31.68 ГБскачатьПродолжительность: 01:40:50Формат: BDMVВидео кодек: AVCАудио кодек: AC3Видео:   H.264/AVC, 1920x1080p, (16:9), 24.8 Mbps, 23.976 fpsАудио:   Аудио 1: AC3, 6 ch, 384 kbps - Русский Аудио 2: DTS-HD MA, 6 ch, 2182 kbps - Итальянский Аудио 3: AC3, 2 ch, 192 kbps - Украинский Аудио 4: AC3, 6 ch, 448 kbps - Испанский Аудио 5: AC3, 6 ch, 384 kbps - Английский Аудио 6: DTS-HD MA, 6 ch, 1964 kbps - АнглийскийBDRipПодробнееПроф. (полное дублирование)MKV1.42 ГБскачатьПродолжительность: 01:40:50Формат: MKVВидео кодек: AVCАудио кодек: AC3Видео:   AVC, 1056x440 (2,40:1), 1625 kbps, 23,976 fpsАудио:   AC3 / 5.1 / 48 kHz / 384 kbps / 16 bitKPKПодробнееПроф. (полное дублирование)MP4383.58 МБскачатьПродолжительность: 01:40:50Формат: MP4Видео кодек: H.26xАудио кодек: AACВидео:   Н.264, 640x264 (2.40:1), 23.976 fps, 400 KbpsАудио:   AAC LC, 48.0 KHz, 2 ch, 128 KbpsBDRipПодробнееПроф. (полное дублирование)MKV2.14 ГБскачатьПродолжительность: 01:40:50Формат: MKVВидео кодек: AVCАудио кодек: AC3Видео:   AVC, 1152x480 (2,40:1), 2199 kbps, 23,976 fpsАудио:   Аудио#1: AC3 / 5.1 / 48 kHz / 384 kbps / 16 bit | RUS Аудио#2: AC3 / 5.1 / 48 kHz / 448 kbps / 16 bit | ENGBDRipПодробнееПроф. (полное дублирование)AVI2.05 ГБскачатьПродолжительность: 01:40:50Формат: AVIВидео кодек: XviDАудио кодек: AC3Видео:   xvid, 2061 Кбит/сек, 720x304Аудио:   Аудио 1: Русский: AC3, 6 ch, 384 Кбит/сек Аудио 2: Английский: AC3, 6 ch, 448 Кбит/секBDRipПодробнееПроф. (полное дублирование)AVI1.40 ГБскачатьПродолжительность: 01:40:50Формат: AVIВидео кодек: XviDАудио кодек: AC3Видео:   720x304 (2.37:1), 23.976 fps, XviD build 73 ~1593 kbps avg, 0.30 bit/pixelАудио:   48 kHz, AC3 Dolby Digital, 3/2 (L,C,R,l,r) + LFE ch, ~384 kbpsBDRip (hd)ПодробнееПроф. (полное дублирование)MKV11.01 ГБскачатьПродолжительность: 01:40:50Формат: MKVВидео кодек: H.26xАудио кодек: AC3Видео:   AVC/H.264, 1920x804, 13,4 МbpsАудио:   Аудио1: AC-3, 48.0 KHz, 6 ch, 384 Kbps, CBR (Russian) Аудио2: DTS, 48.0 KHz, 6 ch, 1 509 Kbps, CBR (English)BDRipПодробнееПроф. (полное дублирование)AVI1.42 ГБскачатьПродолжительность: 01:40:50Формат: AVIВидео кодек: XviDАудио кодек: AC3Видео:   720x304 (2.37:1), 23.976 fps, XviD build 73 ~1617 kbps avg, 0.31 bit/pixelАудио:   48 kHz, AC3 Dolby Digital, 3/2 (L,C,R,l,r) + LFE ch, ~384 kbpsBDRipПодробнееПроф. (полное дублирование)MKV1.43 ГБскачатьПродолжительность: 01:40:50Формат: MKVВидео кодек: AVCАудио кодек: AC3Видео:   AVC, 1024x428 (2.40:1), 1638 kbps (0.156 b/px), 23.98 fpsАудио:   Русский (AC3, 6 ch, 384 Кбит/с)BDRip (hd)ПодробнееПроф. (полное дублирование)MKV10.20 ГБскачатьПродолжительность: 01:40:50Формат: MKVВидео кодек: MPEG-4Аудио кодек: AC3Видео:   MPEG-4 AVC, 1920x804, 13.5 Mbit/s, 23.976 fpsАудио:   Аудио #01: 48 kHz, AC3, 5.1, 384 Kbps | Дублированный | iTunes | RUS | Аудио #02: 48 kHz, AC3, 5.1, 640 Kbps | Оригинал | ENG |BDRip (hd)ПодробнееПроф. (полное дублирование)MKV6.09 ГБскачатьПродолжительность: 01:40:50Формат: MKVВидео кодек: AVCАудио кодек: AC3Видео:   1920x808, 8265 kb/s, 23,976 fpsАудио:   AC-3, 384 kbps, 48,0 Hz, 6 chBDRipПодробнееПроф. (полное дублирование)MKV1.91 ГБскачатьПродолжительность: 01:40:50Формат: MKVВидео кодек: H.26xАудио кодек: AC3Видео:   1024x428 (16:9), 23,976 fps, x264 ~1680 kbps avg, 0.160 bit/pixelАудио:   Аудио #1: 48 kHz, AC3 Dolby Digital, 3/2 (L,C,R,l,r) + LFE ch, ~384.00 kbps avg | RUS (iTunes) Аудио #2: 48 kHz, AC3 Dolby Digital, 3/2 (L,C,R,l,r) + LFE ch, ~448.00 kbps avg | ENG Аудио #3: 48 kHz, AC3 Dolby Digital, 2 (L,R) ch, ~192.00 kbps avg | UKR (iTunes) BDRip (hd)ПодробнееПроф. (полное дублирование)MKV5.56 ГБскачатьПродолжительность: 01:40:50Формат: MKVВидео кодек: H.26xАудио кодек: AC3Видео:   AVC/H.264, 1280x536, 6000 kbpsАудио:   Аудио 1: AC3, 6 ch, 384 kbps - Русский Аудио 2: DTS, 6 ch, 1509 Kbps - АнглийскийBDRipПодробнееПроф. (полное дублирование)AVI1.42 ГБскачатьПродолжительность: 01:40:50Формат: AVIВидео кодек: XviDАудио кодек: AC3Видео:   XviD, 720x304, 23.976 fps, 1616 kbpsАудио:   AC3, 6 ch, 384 kbpsBDRipПодробнееПроф. (полное дублирование)AVI745.48 МБскачатьПродолжительность: 01:40:50Формат: AVIВидео кодек: XviDАудио кодек: MP3Видео:   XviD, 688x288, 23.976 fps, 899 kbpsАудио:   MP3, 2 ch, 128 kbpsBDRipПодробнееПроф. (полное дублирование)MKV745.55 МБскачатьПродолжительность: 01:40:50Формат: MKVВидео кодек: AVCАудио кодек: AACВидео:   784x328, 968 kbps, 23,976 fps, 0,157 Bits/(Pixel*Frame)Аудио:   AAC, 48 kHz, 2 ch, 64 kbps

torrentskino.info

Очень плохие девчонки через торрент

GeneralUnique ID : 201752455532152245402149825958919619826 (0x97C81C0B39FB2BE19F38D656D5B144F2)Complete name : E:\Rough Night.2017.BDRip-AVC.Rip.by.White Smoke.R.G.Generalfilm.mkvFormat : MatroskaFormat version : Version 4 / Version 2File size : 1.43 GiBDuration : 1h 40mnOverall bit rate : 2 024 KbpsMovie name : Rough Night.2017.BDRip-AVC.Rip.by.White Smoke.R.G.Generalfilm.mkvEncoded date : UTC 2017-08-27 11:21:50Writing application : mkvmerge v6.8.0 ('Theme for Great Cities') 64bit built on Mar 2 2014 21:34:26Writing library : libebml v1.3.0 + libmatroska v1.4.1

VideoID : 1Format : AVCFormat/Info : Advanced Video CodecFormat profile : [email protected] settings, CABAC : YesFormat settings, ReFrames : 12 framesCodec ID : V_MPEG4/ISO/AVCDuration : 1h 40mnBit rate : 1 638 KbpsWidth : 1 024 pixelsHeight : 428 pixelsDisplay aspect ratio : 2.40:1Frame rate mode : ConstantFrame rate : 23.976 fpsColor space : YUVChroma subsampling : 4:2:0Bit depth : 8 bitsScan type : ProgressiveBits/(Pixel*Frame) : 0.156Stream size : 1.13 GiB (79%)Writing library : x264 core 148 r2638 7599210Encoding settings : cabac=1 / ref=12 / deblock=1:-1:-2 / analyse=0x3:0x113 / me=umh / subme=11 / psy=1 / psy_rd=1.00:0.14 / mixed_ref=1 / me_range=32 / chroma_me=1 / trellis=2 / 8x8dct=1 / cqm=0 / deadzone=21,11 / fast_pskip=0 / chroma_qp_offset=-5 / threads=6 / lookahead_threads=1 / sliced_threads=0 / nr=0 / decimate=0 / interlaced=0 / bluray_compat=0 / constrained_intra=0 / bframes=10 / b_pyramid=2 / b_adapt=2 / b_bias=10 / direct=1 / weightb=0 / open_gop=0 / weightp=2 / keyint=240 / keyint_min=23 / scenecut=40 / intra_refresh=0 / rc_lookahead=40 / rc=2pass / mbtree=1 / bitrate=1638 / ratetol=1.0 / qcomp=0.70 / qpmin=0 / qpmax=69 / qpstep=4 / cplxblur=20.0 / qblur=0.5 / vbv_maxrate=50000 / vbv_bufsize=65500 / nal_hrd=none / filler=0 / ip_ratio=1.40 / aq=1:1.00Default : YesForced : No

AudioID : 2Format : AC-3Format/Info : Audio Coding 3Mode extension : CM (complete main)Format settings, Endianness : BigCodec ID : A_AC3Duration : 1h 40mnBit rate mode : ConstantBit rate : 384 KbpsChannel(s) : 6 channelsChannel positions : Front: L C R, Side: L R, LFESampling rate : 48.0 KHzBit depth : 16 bitsCompression mode : LossyStream size : 277 MiB (19%)Title : DUB (iTunes)Language : RussianDefault : YesForced : No

Text #1ID : 3Format : UTF-8Codec ID : S_TEXT/UTF8Codec ID/Info : UTF-8 Plain TextTitle : ForcedLanguage : RussianDefault : YesForced : No

Text #2ID : 4Format : UTF-8Codec ID : S_TEXT/UTF8Codec ID/Info : UTF-8 Plain TextTitle : FullLanguage : RussianDefault : NoForced : No

Menu00:00:00.000 : en:00:00:00.00000:04:44.326 : en:00:04:44.32600:08:05.276 : en:00:08:05.27600:15:19.210 : en:00:15:19.21000:25:46.295 : en:00:25:46.29500:34:27.023 : en:00:34:27.02300:39:51.264 : en:00:39:51.26400:43:11.088 : en:00:43:11.08800:46:26.617 : en:00:46:26.61700:49:09.530 : en:00:49:09.53000:53:44.179 : en:00:53:44.17900:59:37.657 : en:00:59:37.65701:02:53.937 : en:01:02:53.93701:11:56.646 : en:01:11:56.64601:22:55.679 : en:01:22:55.67901:30:58.328 : en:01:30:58.328

piratbit.ru

(2017)

HDRip

HDRip

HDRip

HDRip

HDRip

HDRip

HDRip

HDRip

HDRip

HDRip

HDRip

HDRip

HDRip

HDRip

HDRip

HDRip

HDRip

DVDRip

HDRip

HDRip

HDRip

HDRip

HDRip

HDRip

HDRip

HDRip

:HDRip : : Rough Night: Great friends. Terrible choices: : : , , , , , , , , , : , . : , , .

: ? , . - , .

  dle 11.0
, ! , 1. !2. , ! 3. !torrentum.org - , (2017) , ! , , . , , .

torrentum.org


Смотрите также