300 спартанцев 2 скачать бесплатно


Расцвет империи (2014) » The-Cinema.NET – лучший кинотеатр для просмотра онлайн-фильмов бесплатно.

В подборке: Античные времена,Экранизация комиксов

Информация о фильме:Жанр: фэнтези, боевик, драма, военныйСтрана: СШАГод выпуска: 2014Режиссер: Ноам МурроПродолжительность: 102 мин.Перевод: Полный дубляж [ Лицензия! ]В ролях: Салливан Степлтон, Ева Грин, Джек О'Коннелл, Каллэн Мулвей, Ганс Мэтисон, Родриго Санторо, Лина Хиди, Дэвид Уэнэм, Эндрю Тирнан, Эндрю ПлевинОписание фильма: Главные герои этого интересного исторического фильма - древнегреческий воин и руководитель греческой армии Фемистокл, который в 480 году перед рождением Христа, был главой флота Греции, древний царь Ксеркс I Персидский, который, уже неоднократно, вынашивает планы завоевания Эллады, а также Артемисия I из Карии, которая управляет Ионией, и находящаяся в подчинении Ксеркса. В этой ленте кино, показаны события, происходящие сразу после Фермопильской битвы. В нелегкое для Греции время, Фемисткл получает управление Греческой армией. В сюжете показана вражда городов - государств империи Персов. Изображена фатальная роль битв возле Артемиссии, Марафона, а также Саламики. В этих битвах, решающую роль имела Артемиссия, а руководитель армии Греков доказал, что его личность вполне оправданно прославлена в истории. @ The-Cinema.net

Оценки зрителей: Также советуем к онлайн просмотру:

9.4

Занимательность:

9.3

Игра актеров: Зарегистрируйтесь, если не хотите видеть этот баннер!

Смотреть 300 спартанцев: Расцвет империи онлайн:

Или:

  Скачать торрент "300 спартанцев: Расцвет империи" бесплатно:

Торрент №1

Торрент №2 | BDRip 1080p

Качество: BDRip (Что такое BDRip или DVDRip?)Видео: 720x304 (2.37:1), 23,976 fps, XviD build 65 ~2139 kbps avg, 0.41 bit/pixelАудио: Аудио #1: 48 kHz, AC3 Dolby Digital, 3/2 (L,C,R,l,r) + LFE ch, ~448.00 kbps avg Аудио #2: 48 kHz, AC3 Dolby Digital, 3/2 (L,C,R,l,r) + LFE ch, ~448.00 kbps avgРазмер: 2.18 ГБПеревод: Проф. (полное дублирование) Качество: BDRip 1080p (Что такое BDRip или DVDRip?)Видео: 1920x800, 9 740 Кбит/сек, 23.976 кадр/сек, AVC, x264, [email protected], 0.264 Бит/[Пиксели*Кадры], 2passАудио: Аудио 1: AC3 5.1 48 kHz 448 kbps - Дублированный - [лицензия] Аудио 2: AC3 5.1 48 kHz 640 kbps - EnglishРазмер: 7.76 ГБПеревод: Проф. (полное дублирование)

Ещё никто не оставил рецензию.

ИнформацияПосетители, находящиеся в группе Гости, не могут оставлять комментарии к данной публикации.

the-cinema.net

3 / 300 Rise of an Empire 3D ( by Ash61) 1022

General

Unique ID : 188016656938896738571856353033690665049 (0x8D72B0E307F910C0B8841F2FBCC1D059)

Complete name : E:300.RiseOfAnEmpire(2014)3D-halfOU(Ash61)300.RiseOfAnEmpire(2014)3D-halfOU(Ash61).mkv

Format : Matroska

Format version : Version 2

File size : 9.14 GiB

Duration : 1h 42mn

Overall bit rate : 12.8 Mbps

Movie name : 300 : / 300: Rise of an Empire (2014) 3D

Encoded date : UTC 2014-06-26 18:50:58

Writing application : mkvmerge v5.8.0 ('No Sleep / Pillow') built on Sep 2 2012 15:37:04

Writing library : libebml v1.2.3 + libmatroska v1.3.0

Video

ID : 1

Format : AVC

Format/Info : Advanced Video Codec

Format profile : [email protected]

Format settings, CABAC : Yes

Format settings, ReFrames : 4 frames

Codec ID : V_MPEG4/ISO/AVC

Duration : 1h 42mn

Bit rate : 11.0 Mbps

Width : 1 920 pixels

Height : 1 080 pixels

Display aspect ratio : 16:9

Frame rate mode : Constant

Frame rate : 23.976 fps

Color space : YUV

Chroma subsampling : 4:2:0

Bit depth : 8 bits

Scan type : Progressive

Bits/(Pixel*Frame) : 0.221

Stream size : 7.86 GiB (86%)

Title : BDRip by Ash61

Writing library : x264 core 129 r2245 bc13772

Encoding settings : cabac=1 / ref=4 / deblock=1:-3:-3 / analyse=0x3:0x113 / me=umh / subme=10 / psy=1 / psy_rd=1.00:0.15 / mixed_ref=1 / me_range=32 / chroma_me=1 / trellis=2 / 8x8dct=1 / cqm=0 / deadzone=21,11 / fast_pskip=1 / chroma_qp_offset=-3 / threads=12 / lookahead_threads=2 / sliced_threads=0 / nr=0 / decimate=1 / interlaced=0 / bluray_compat=0 / constrained_intra=0 / bframes=10 / b_pyramid=2 / b_adapt=2 / b_bias=0 / direct=3 / weightb=1 / open_gop=0 / weightp=2 / keyint=250 / keyint_min=23 / scenecut=40 / intra_refresh=0 / rc_lookahead=60 / rc=crf / mbtree=1 / crf=17.0 / qcomp=0.70 / qpmin=0 / qpmax=69 / qpstep=4 / vbv_maxrate=40000 / vbv_bufsize=30000 / crf_max=0.0 / nal_hrd=none / frame-packing=4 / ip_ratio=1.40 / aq=1:0.70

Language : English

Default : Yes

Forced : No

Audio #1

ID : 2

Format : AC-3

Format/Info : Audio Coding 3

Mode extension : CM (complete main)

Format settings, Endianness : Big

Codec ID : A_AC3

Duration : 1h 42mn

Bit rate mode : Constant

Bit rate : 448 Kbps

Channel(s) : 6 channels

Channel positions : Front: L C R, Side: L R, LFE

Sampling rate : 48.0 KHz

Bit depth : 16 bits

Compression mode : Lossy

Stream size : 329 MiB (4%)

Title : - BD CEE

Language : Russian

Default : Yes

Forced : No

Audio #2

ID : 3

Format : AC-3

Format/Info : Audio Coding 3

Mode extension : CM (complete main)

Format settings, Endianness : Big

Codec ID : A_AC3

Duration : 1h 42mn

Bit rate mode : Constant

Bit rate : 448 Kbps

Channel(s) : 6 channels

Channel positions : Front: L C R, Side: L R, LFE

Sampling rate : 48.0 KHz

Bit depth : 16 bits

Compression mode : Lossy

Stream size : 329 MiB (4%)

Title : - BD CEE

Language : Ukrainian

Default : No

Forced : No

Audio #3

ID : 4

Format : AC-3

Format/Info : Audio Coding 3

Mode extension : CM (complete main)

Format settings, Endianness : Big

Codec ID : A_AC3

Duration : 1h 42mn

Bit rate mode : Constant

Bit rate : 640 Kbps

Channel(s) : 6 channels

Channel positions : Front: L C R, Side: L R, LFE

Sampling rate : 48.0 KHz

Bit depth : 16 bits

Compression mode : Lossy

Stream size : 470 MiB (5%)

Title : Original - BD 3D

Language : English

Default : No

Forced : No

Text #1

ID : 5

Format : UTF-8

Codec ID : S_TEXT/UTF8

Codec ID/Info : UTF-8 Plain Text

Title :

Language : Russian

Default : Yes

Forced : No

Text #2

ID : 6

Format : UTF-8

Codec ID : S_TEXT/UTF8

Codec ID/Info : UTF-8 Plain Text

Title :

Language : Russian

Default : No

Forced : No

Text #3

ID : 7

Format : UTF-8

Codec ID : S_TEXT/UTF8

Codec ID/Info : UTF-8 Plain Text

Title :

Language : Ukrainian

Default : No

Forced : No

Text #4

ID : 8

Format : UTF-8

Codec ID : S_TEXT/UTF8

Codec ID/Info : UTF-8 Plain Text

Title :

Language : Ukrainian

Default : No

Forced : No

Text #5

ID : 9

Format : UTF-8

Codec ID : S_TEXT/UTF8

Codec ID/Info : UTF-8 Plain Text

Title : Full

Language : English

Default : No

Forced : No

Text #6

ID : 10

Format : UTF-8

Codec ID : S_TEXT/UTF8

Codec ID/Info : UTF-8 Plain Text

Title : SDH

Language : English

Default : No

Forced : No

Menu

00:00:00.000 : :1

00:10:26.376 : :2

00:20:54.628 : :3

00:31:15.290 : :4

00:40:58.498 : :5

00:50:50.714 : :6

01:00:05.435 : :7

01:09:51.813 : :8

01:19:51.245 : :9

01:31:07.295 : :10

01:33:57.131 : :11

stereotraker.ru

300 спартанцев: Расцвет империи 2014

Название: 300 спартанцев: Расцвет империи / 300: Rise of an Empire (2014) BDRip 720p от KinoGadget | iPad | Лицензия
Качество видео: BDRip 720p Исходник: Blu-Ray Remux (1080p) Формат: mp4
Перевод: Дублированный [Blu-ray CEE]
Видео: MPEG-4 AVC Аудио кодек: AAC 1280x534 (2.40:1) at 23.976 fps, AVC at 4 073 kbps avg, 0.249 bit/pixel
Аудио: 48.0 KHz, AAC, 2 ch, 128.0 Kbps48.0 KHz, AAC, 2 ch, 128.0 Kbps
Скачать

Загрузка начнется в течение 5 сек.

3.11 GB

Название: 300 спартанцев: Расцвет империи / 300: Rise of an Empire (2014) BDRip 1080p HEVC от TURG | Лицензия
Качество видео: BDRip 1080p (исходник Blu-ray Disc Remux)
Перевод: Профессиональный (полное дублирование) Лицензия
Видео: HEVC/[email protected] at 3 997 kb/s, 1920 x 800 (2.400) at 23.976 fps
Аудио: AC-3, 448 Кбит/сек, 6 канала(ов), 48,0 КГц - Дублированный / РусскийAC-3, 448 Кбит/сек, 6 канала(ов), 48,0 КГц - Оригинал / АнглийскийAC-3, 448 Кбит/сек, 6 канала(ов), 48,0 КГц - Дублированный / Турецкий
Скачать

Загрузка начнется в течение 5 сек.

3.83 GB

Название: 300 спартанцев: Расцвет империи / 300: Rise of an Empire (2014) BDRip 1080p от Leonardo and Scarabey | Лицензия
Качество видео: BDRip 1080p Исходник: 30[email protected]CHDBits
Перевод: Профессиональный (полное дублирование) Лицензия
Формат видео: MKV Видео кодек: MPEG-4 AVC Аудио кодек: AC3
Видео: AVC, 1920x800 (2.40:1) at 23.976 fps, AVC at 11.5 Mbps avg, 0.311 bit/pixel
Аудио: Russian; AC3; 448 Kbps; CBR; 6 ch; 16 bit; Dub
Скачать

Загрузка начнется в течение 5 сек.

8.70 GB

Название: 300 спартанцев: Расцвет империи / 300: Rise of an Empire (2014) BDRip 1080p от Ash61 | 3D-Video | halfOU | iTunes
Качество видео: BDRip
Перевод: Профессиональный дублированный - iTunes
Формат видео: Вертикальная анаморфная стереопара
Видео: MKV x264 AVC / 23,976 fps / 1920х1080p / 11.0 MbpsHalf OverUnder / Вертикальная анаморфная стереопара
Аудио: AC3 #1 - Русский / AC3 / 48 KHz / 5.1 ch / 384 Kbps (Дубляж - iTunes)#2 - Украинский / AC3 / 48 KHz / 2 ch / 192 Kbps (Дубляж - iTunes)#3 - Английский / AC3 / 48 KHz / 5.1 ch / 640 Kbps (Original - BD 3D)Субтитры:#1 - Русские Форсированные (включены по умолчанию)#2 - Русские Полные (iTunes)#3 - Украинские Форсированные (iTunes)#4 - Украинские Полные (iTunes)#5 - English Full#6 - English SDH
Скачать

Загрузка начнется в течение 5 сек.

8.91 GB

Название: 300 спартанцев: Расцвет империи / 300: Rise of an Empire (2014) BDRip 720p | D | iTunes
Качество видео: BDRip 720p
Перевод: Профессиональное (дублированное)
Формат видео: MKV
Видео: Видео: MPEG-4 AVC / 6900 kb/s / 1280x534
Аудио: Аудио #1: Russian / AC3 / 384 kb/s (6 ch) - Dub iTunesАудио #2: Ukrainian / AC3 / 192 kb/s (2 ch) - Dub iTunesАудио #3: English / DTS / 1536 kb/s (6 ch) - OriginalАудио #4: English / AC3 / 640 kb/s (6 ch) - OriginalСубтитры: Russian, Ukrainian, English
Скачать

Загрузка начнется в течение 5 сек.

6.90 GB

Название: 300 спартанцев: Расцвет империи / 300: Rise of an Empire (2014) BDRip 1080p | D | iTunes
Качество видео: BDRip 1080p
Перевод: Профессиональное (дублированное)
Формат видео: MKV
Видео: MPEG-4 AVC / 16600 kb/s / 1920x800
Аудио: Аудио #1: Russian / AC3 / 384 kb/s (6 ch) - Dub iTunesАудио #2: Ukrainian / AC3 / 192 kb/s (2 ch) - Dub iTunesАудио #3: English / DTS / 1536 kb/s (6 ch) - OriginalАудио #4: English / AC3 / 640 kb/s (6 ch) - OriginalСубтитры: Russian, Ukrainian, English
Скачать

Загрузка начнется в течение 5 сек.

13.85 GB

Название: 300 спартанцев: Расцвет империи / 300: Rise of an Empire (2014) WEB-DLRip | iTunes
Качество видео: WEB-DLRip [Рип с WEB-DL 720p]
Перевод: Дублированный | iTunes
Видео: MPEG4, XviD, 720x304 (2.35:1), 23.976 fps, 1 640 Kbps (0.312 bit/pixel)
Аудио: AC-3, 48.0 KHz, 6 ch, 384 Kbps, CBR ! (Русский)
Скачать

Загрузка начнется в течение 5 сек.

1.46 GB

Название: 300 спартанцев: Расцвет империи / 300: Rise of an Empire (2014) WEB-DL 720p | iTunes
Качество видео: WEB-DL 720p
Перевод: Дублированное [звук с iTunes]
Формат видео: MKV
Видео: AVC, 1280x532 (2.40:1), 23.976 fps, 4142 Kbps (0.254 bit/pixel)
Аудио: Аудио #1: 48 kHz, AC3 Dolby Digital, 3/2 (L,C,R,l,r) + LFE ch, ~384 kbps |Дубляж iTunes|Аудио #2: AAC LC, 48.0 KHz, 2 ch (Ukrainian)Аудио #3: AAC LC, 48.0 KHz, 2 ch (English)
Скачать

Загрузка начнется в течение 5 сек.

3.53 GB

Название: 300 спартанцев: Расцвет империи / 300: Rise of an Empire (2014) WEBRip | Звук с CAMRip
Качество видео: WEBRip
Перевод: Дублированное [звук с CAMRip]
Формат видео: AVI (XviD)
Видео: 821 kb/s, 720x304, 30 fps
Аудио: MP3, 128 kb/s, 2 ch, 44,1 kHz
Скачать

Загрузка начнется в течение 5 сек.

704.41 MB

Название: 300 спартанцев: Расцвет империи / 300: Rise of an Empire (2014) WEBRip | Звук с CAMRip
Качество видео: WEBRip
Перевод: Дублированное [звук с CAMRip]
Формат видео: AVI (XviD)
Видео: 1762 kb/s, 720x304
Аудио: AC3, 128 kb/s (2 ch)
Скачать

Загрузка начнется в течение 5 сек.

1.37 GB

Название: 300 спартанцев: Расцвет империи / 300: Rise of an Empire (2014) WEBRip | Звук с CAMRip
Качество видео: WEBRip
Перевод: Дублированное [звук с CAMRip] Не хватает около 2 мин. перевода
Формат видео: AVI (XviD)
Видео: 819 kb/s, 720x288
Аудио: MP3, 128 kb/s (2 ch)
Скачать

Загрузка начнется в течение 5 сек.

704.85 MB

Название: 300 спартанцев: Расцвет империи / 300: Rise of an Empire (2014) WEBRip | Звук с CAMRip
Качество видео: WEBRip
Перевод: Дублированное [звук с CAMRip] Не хватает около 2 мин. перевода
Формат видео: AVI (XviD)
Видео: 1880 kb/s, 720x288
Аудио: MP3, 128 Kb/s (2 ch)
Скачать

Загрузка начнется в течение 5 сек.

1.45 GB

Название: 300 спартанцев: Расцвет империи / 300: Rise of an Empire (2014) CAMRip
Качество видео: CAMRip
Перевод: Дублированное
Формат видео: AVI
Видео: XviD, 2069 Kb/s, 720x336
Аудио: MP3, 128 Kb/s (2 ch)
Скачать

Загрузка начнется в течение 5 сек.

1.37 GB

Название: 300 спартанцев: Расцвет империи / 300: Rise of an Empire (2014) 1080p HDTVRip | Трейлер
Качество видео: HDTVRip [1080p]
Перевод: Дублированный
Видео: MPEG-4 AVC, 1920х1080, 8827 Кбит/сек
Аудио: AAC 2.0, 192 Кбит/сек [Русский]
Скачать

Загрузка начнется в течение 5 сек.

157.38 MB

Название: 300 спартанцев: Расцвет империи / 300 Rise of an Empire (2014) HD 1080p | L1 | Трейлер
Качество видео: HDRip
Перевод: любительский одноголосный закадровый
Видео: MPEG-4 1 920х1 080 23.976 fps 3 373 Kbps
Аудио: AAC 44.1 KHz, 192kbps, 2 channels
Скачать

Загрузка начнется в течение 5 сек.

64.35 MB

www.kinovit.net

300 : / 300: Rise of an Empire (2014) BDRip 1080p | 3D-Video

300 : 300: Rise of an Empire

: 2014: (Warner Bros. Pictures, Legendary Pictures): , , , : 1:42:36

: - iTunes

: / Noam Murro

():

Themistocles - ( )Artemisia - ( )Calisto - ' ( )Scyllias - ( )Aeskylos - ( )Xerxes - ( )Queen Gorgo - ( )Dilios - ( )Ephialtes - ( )Daxos - ( )King Darius - ( )Persian Emissary - General Artaphernes - ( )General Bandari - ( )

: . . , . - - .

- , (3- ), . , , , .6 . , , ., `., ., . 300 (2007)., . 300: . 300 : , ., , . , , , ., 300 (2007). , (2013). , .300 (2007) . . , , ., , (Gym Jones). , , . - ..2 2013 ., . ., , . , .(2010). , 3- 1,5 1,5 ., , . , , , . , , , .

 

( 90- ) , , .

: 5 2014 Blu-Ray (DVD) (): 3 2014: $110 000 000 : $330 880 051

: BDRip (by Ash61): MKV 3D: Half OverUnder / : : x264 : AC3

: AVC / 23,976 fps / 19201080p / 11.0 Mbps

:#1 - / AC3 / 48 KHz / 5.1 ch / 384 Kbps ( - iTunes)#2 - / AC3 / 48 KHz / 2 ch / 192 Kbps ( - iTunes)#3 - / AC3 / 48 KHz / 5.1 ch / 640 Kbps (Original - BD 3D)

: (SRT) (softsub):#1 - ( )#2 - (iTunes)#3 - (iTunes)#4 - (iTunes)#5 - English Full#6 - English SDH

(UTF-8):#1 - ( )#2 - (iTunes)

GeneralUnique ID : 220631182440359571625017825436445776935 (0xA5FC0524CC536F0C98C6FEF218551C27)Complete name : E:300.RiseOfAnEmpire(2014)3D-halfOU(Ash61)iTunes300.RiseOfAnEmpire(2014)3D-halfOU(Ash61)iTunes.mkvFormat : MatroskaFormat version : Version 2File size : 8.91 GiBDuration : 1h 42mnOverall bit rate : 12.4 MbpsMovie name : 300 : / 300: Rise of an Empire (2014) 3DEncoded date : UTC 2014-06-07 21:07:24Writing application : mkvmerge v5.8.0 ('No Sleep / Pillow') built on Sep 2 2012 15:37:04Writing library : libebml v1.2.3 + libmatroska v1.3.0

VideoID : 1Format : AVCFormat/Info : Advanced Video CodecFormat profile : [email protected]Format settings, CABAC : YesFormat settings, ReFrames : 4 framesCodec ID : V_MPEG4/ISO/AVCDuration : 1h 42mnBit rate : 11.0 MbpsWidth : 1 920 pixelsHeight : 1 080 pixelsDisplay aspect ratio : 16:9Frame rate mode : ConstantFrame rate : 23.976 fpsColor space : YUVChroma subsampling : 4:2:0Bit depth : 8 bitsScan type : ProgressiveBits/(Pixel*Frame) : 0.221Stream size : 7.86 GiB (88%)Title : BDRip by Ash61Writing library : x264 core 129 r2245 bc13772Encoding settings : cabac=1 / ref=4 / deblock=1:-3:-3 / analyse=0x3:0x113 / me=umh / subme=10 / psy=1 / psy_rd=1.00:0.15 / mixed_ref=1 / me_range=32 / chroma_me=1 / trellis=2 / 8x8dct=1 / cqm=0 / deadzone=21,11 / fast_pskip=1 / chroma_qp_offset=-3 / threads=12 / lookahead_threads=2 / sliced_threads=0 / nr=0 / decimate=1 / interlaced=0 / bluray_compat=0 / constrained_intra=0 / bframes=10 / b_pyramid=2 / b_adapt=2 / b_bias=0 / direct=3 / weightb=1 / open_gop=0 / weightp=2 / keyint=250 / keyint_min=23 / scenecut=40 / intra_refresh=0 / rc_lookahead=60 / rc=crf / mbtree=1 / crf=17.0 / qcomp=0.70 / qpmin=0 / qpmax=69 / qpstep=4 / vbv_maxrate=40000 / vbv_bufsize=30000 / crf_max=0.0 / nal_hrd=none / frame-packing=4 / ip_ratio=1.40 / aq=1:0.70Language : EnglishDefault : YesForced : No

Audio #1ID : 2Format : AC-3Format/Info : Audio Coding 3Mode extension : CM (complete main)Format settings, Endianness : BigCodec ID : A_AC3Duration : 1h 42mnBit rate mode : ConstantBit rate : 384 KbpsChannel(s) : 6 channelsChannel positions : Front: L C R, Side: L R, LFESampling rate : 48.0 KHzBit depth : 16 bitsCompression mode : LossyStream size : 282 MiB (3%)Title : - iTunesLanguage : RussianDefault : YesForced : No

Audio #2ID : 3Format : AC-3Format/Info : Audio Coding 3Mode extension : CM (complete main)Format settings, Endianness : BigCodec ID : A_AC3Duration : 1h 42mnBit rate mode : ConstantBit rate : 192 KbpsChannel(s) : 2 channelsChannel positions : Front: L RSampling rate : 48.0 KHzBit depth : 16 bitsCompression mode : LossyStream size : 141 MiB (2%)Title : - iTunesLanguage : UkrainianDefault : NoForced : No

Audio #3ID : 4Format : AC-3Format/Info : Audio Coding 3Mode extension : CM (complete main)Format settings, Endianness : BigCodec ID : A_AC3Duration : 1h 42mnBit rate mode : ConstantBit rate : 640 KbpsChannel(s) : 6 channelsChannel positions : Front: L C R, Side: L R, LFESampling rate : 48.0 KHzBit depth : 16 bitsCompression mode : LossyStream size : 470 MiB (5%)Title : Original - BD 3DLanguage : EnglishDefault : NoForced : No

Text #1ID : 5Format : UTF-8Codec ID : S_TEXT/UTF8Codec ID/Info : UTF-8 Plain TextTitle : Language : RussianDefault : YesForced : No

Text #2ID : 6Format : UTF-8Codec ID : S_TEXT/UTF8Codec ID/Info : UTF-8 Plain TextTitle : Language : RussianDefault : NoForced : No

Text #3ID : 7Format : UTF-8Codec ID : S_TEXT/UTF8Codec ID/Info : UTF-8 Plain TextTitle : Language : UkrainianDefault : NoForced : No

Text #4ID : 8Format : UTF-8Codec ID : S_TEXT/UTF8Codec ID/Info : UTF-8 Plain TextTitle : Language : UkrainianDefault : NoForced : No

Text #5ID : 9Format : UTF-8Codec ID : S_TEXT/UTF8Codec ID/Info : UTF-8 Plain TextTitle : FullLanguage : EnglishDefault : NoForced : No

Text #6ID : 10Format : UTF-8Codec ID : S_TEXT/UTF8Codec ID/Info : UTF-8 Plain TextTitle : SDHLanguage : EnglishDefault : NoForced : No

Menu00:00:00.000 : :100:10:26.376 : :200:20:54.628 : :300:31:15.290 : :400:40:58.498 : :500:50:50.714 : :601:00:05.435 : :701:09:51.813 : :801:19:51.245 : :901:31:07.295 : :1001:33:57.131 : :11

 

filmtor.net

Саундтрек к фильму "300 спартанцев: Расцвет империи"

Далее перечислены музыкальные композиции, прозвучавшие в киноленте "300 спартанцев: Расцвет империи". Необязательно скачивать сразу весь саундтрек, Вы можете проверить, включена ли в сборник нужная Вам песня или фоновая музыка. Для этого Вы можете прослушать любой трек онлайн, а уже после скачать бесплатно весь альбом.

Вся музыка и песни из фильма "300 спартанцев: Расцвет империи - 300: Rise of an Empire"

доступна для онлайн прослушивания, однако качество ее звука значительно ниже, чем в представленном для скачивания альбоме, включающем все mp3-треки сразу.

Треклист

Качество треков, представленных на сайте для прослушивания не выше 50 кбит/с.

Original Score - оригинальная композиторская музыка, как правило, написанная специально для определенного произведения, иногда такой альбом включает в себя треки других исполнителей

Исполнитель песниили автор музыки Название песниВремязвучанияразмерМБСлушатьОнлайн1Junkie XLA Beach of Bodies4:172.432Junkie XLArtemisia's Childhood3:432.253Junkie XLEnd Credits2:351.624Junkie XLFire Battle6:113.775Junkie XLFog Battle4:362.766Junkie XLFrom Man to God King3:502.197Junkie XLGreeks Are Winning6:053.588Junkie XLGreeks on Attack4:282.669Junkie XLHistory of Artemisia9:355.7110Junkie XLHistory of the Greeks7:054.3411Junkie XLLeft for Dead1:320.8512Junkie XLMarathon3:552.413Junkie XLQueen Gorgo3:602.3314Junkie XLSparta1:060.6615Junkie XLSuicide1:180.7316Junkie XLXerxes' Thoughts3:442.15 01:07:59

Бонус-треки - песни, прозвучавшие в фильме, но не вошедшие в официальный саундтрек

Исполнитель песниили автор музыки Название песниВремязвучанияразмерМБСлушатьОнлайн1Black Sabbath'War Pigs7:565.22 00:07:56

xn--80adhccsnv2afbpk.xn--p1ai


Смотрите также